Tags
Language
Tags

24 S07E24

Posted By: Tavaz
1080p (FullHD) / BDRip IMDb
24 S07E24

24 S07E24
BluRay Remux | MKV | 1920x1080 | English / English | H264 @ 24943 kbps | DTS | 46 min 24 s | 9.38 GiB
Subtitles: Spanish, French, English
Genre: Drama

24 is an American television series produced for the Fox network and syndicated worldwide, starring Kiefer Sutherland as Counter Terrorist Unit agent Jack Bauer. Each 24-episode season covers 24 hours in the life of Bauer, using the real time method of narration.

3dddc300cf224a7691cac69ea4b44268.mkv (9.4 GB)



General
Unique ID : 34964588024682303402507575276417005771 (0x1A4DEF48F510F6B1E8D136ED540338CB)
Complete name : ./3dddc300cf224a7691cac69ea4b44268.mkv
Format : Matroska
Format version : Version 4 / Version 2
File size : 9.38 GiB
Duration : 46 min 24 s
Overall bit rate mode : Variable
Overall bit rate : 28.9 Mb/s
Encoded date : UTC 2017-03-12 15:25:39
Writing application : mkvmerge v9.9.0 ('Pick Up') 64bit
Writing library : libebml v1.3.4 + libmatroska v1.4.5

Video
ID : 1
Format : AVC
Format/Info : Advanced Video Codec
Format profile : High@L4.1
Format settings : CABAC / 4 Ref Frames
Format settings, CABAC : Yes
Format settings, RefFrames : 4 frames
Codec ID : V_MPEG4/ISO/AVC
Duration : 46 min 24 s
Bit rate mode : Variable
Bit rate : 24.9 Mb/s
Maximum bit rate : 37.0 Mb/s
Width : 1 920 pixels
Height : 1 080 pixels
Display aspect ratio : 16:9
Frame rate mode : Constant
Frame rate : 23.976 (24000/1001) FPS
Color space : YUV
Chroma subsampling : 4:2:0
Bit depth : 8 bits
Scan type : Progressive
Bits/(Pixel*Frame) : 0.502
Stream size : 8.09 GiB (86%)
Title : MPEG-4 AVC Video / 24992 kbps / 1080p / 23.976 fps / 16:9 / High Profile 4.1
Default : Yes
Forced : No
Color range : Limited
Color primaries : BT.709
Transfer characteristics : BT.709
Matrix coefficients : BT.709

Audio #1
ID : 2
Format : DTS
Format/Info : Digital Theater Systems
Format profile : MA / Core
Mode : 16
Format settings, Endianness : Big
Codec ID : A_DTS
Duration : 46 min 24 s
Bit rate mode : Variable / Constant
Bit rate : 3 618 kb/s / 1 509 kb/s
Channel(s) : 6 channels
Channel positions : Front: L C R, Side: L R, LFE
Sampling rate : 48.0 kHz
Frame rate : 93.750 FPS (512 SPF)
Bit depth : 24 bits
Compression mode : Lossless / Lossy
Stream size : 1.17 GiB (13%)
Title : DTS-HD Master Audio / 5.1 / 48 kHz / 3618 kbps / 24-bit
Language : English
Default : Yes
Forced : No

Audio #2
ID : 3
Format : AC-3
Format/Info : Audio Coding 3
Format settings, Endianness : Big
Codec ID : A_AC3
Duration : 46 min 24 s
Bit rate mode : Constant
Bit rate : 224 kb/s
Channel(s) : 2 channels
Channel positions : Front: L R
Sampling rate : 48.0 kHz
Frame rate : 31.250 FPS (1536 SPF)
Bit depth : 16 bits
Compression mode : Lossy
Stream size : 74.4 MiB (1%)
Title : Commentary with Executive Producer Howard Gordon and Executive Producer/Director Jon Cassar (Dolby Digital Audio / 2.0 / 48 kHz / 224 kbps)
Language : English
Service kind : Complete Main
Default : No
Forced : No

Text #1
ID : 4
Format : PGS
Codec ID : S_HDMV/PGS
Codec ID/Info : Picture based subtitle format used on BDs/HD-DVDs
Duration : 46 min 8 s
Bit rate : 55.0 kb/s
Count of elements : 1109
Stream size : 18.2 MiB (0%)
Title : SDH
Language : English
Default : No
Forced : No

Text #2
ID : 5
Format : PGS
Codec ID : S_HDMV/PGS
Codec ID/Info : Picture based subtitle format used on BDs/HD-DVDs
Duration : 45 min 38 s
Bit rate : 49.5 kb/s
Count of elements : 926
Stream size : 16.2 MiB (0%)
Language : French
Default : No
Forced : No

Text #3
ID : 6
Format : PGS
Codec ID : S_HDMV/PGS
Codec ID/Info : Picture based subtitle format used on BDs/HD-DVDs
Duration : 45 min 38 s
Bit rate : 46.4 kb/s
Count of elements : 926
Stream size : 15.2 MiB (0%)
Language : Spanish
Default : No
Forced : No

Menu
00:00:00.000 : en:Chapter 1
00:02:08.378 : en:Chapter 2
00:07:06.926 : en:Chapter 3
00:11:27.437 : en:Chapter 4
00:17:17.912 : en:Chapter 5
00:20:52.001 : en:Chapter 6
00:22:29.723 : en:Chapter 7
00:26:18.076 : en:Chapter 8
00:32:56.600 : en:Chapter 9
00:35:50.065 : en:Chapter 10
00:41:07.715 : en:Chapter 11
00:43:32.235 : en:Chapter 12





24 S07E24


24 S07E24


24 S07E24


24 S07E24


24 S07E24

All episodes