Tags
Language
Tags

24 S08E02

Posted By: Tavaz
1080p (FullHD) / BluRay Remux IMDb
24 S08E02

24 S08E02
BluRay Remux | MKV | 1920x1080 | English | H264 @ 20435 kbps | DTS | 44 min 25 s | 7.63 GiB
Subtitles: Swedish, Portuguese, Dutch, Finnish, Danish, German, Spanish, Japanese, French, Norwegian, English
Genre: Drama

24 is an American television series produced for the Fox network and syndicated worldwide, starring Kiefer Sutherland as Counter Terrorist Unit agent Jack Bauer. Each 24-episode season covers 24 hours in the life of Bauer, using the real time method of narration.

afa39fc0ca4e4f1a90266fb97770f3e0.mkv (7.6 GB)



General
Unique ID : 176220060234835396575063949301547829314 (0x8492BFC3C25E93C5B6415A6596808842)
Complete name : ./afa39fc0ca4e4f1a90266fb97770f3e0.mkv
Format : Matroska
Format version : Version 4 / Version 2
File size : 7.63 GiB
Duration : 44 min 25 s
Overall bit rate mode : Variable
Overall bit rate : 24.6 Mb/s
Movie name : 24 S08E02
Encoded date : UTC 2017-08-09 21:08:11
Writing application : mkvmerge v13.0.0 ('The Juggler') 64bit
Writing library : libebml v1.3.4 + libmatroska v1.4.5

Video
ID : 1
Format : AVC
Format/Info : Advanced Video Codec
Format profile : High@L4.1
Format settings : CABAC / 4 Ref Frames
Format settings, CABAC : Yes
Format settings, RefFrames : 4 frames
Codec ID : V_MPEG4/ISO/AVC
Duration : 44 min 25 s
Bit rate mode : Variable
Bit rate : 20.4 Mb/s
Maximum bit rate : 34.0 Mb/s
Width : 1 920 pixels
Height : 1 080 pixels
Display aspect ratio : 16:9
Frame rate mode : Constant
Frame rate : 23.976 (24000/1001) FPS
Color space : YUV
Chroma subsampling : 4:2:0
Bit depth : 8 bits
Scan type : Progressive
Bits/(Pixel*Frame) : 0.411
Stream size : 6.34 GiB (83%)
Default : Yes
Forced : No
Color range : Limited
Color primaries : BT.709
Transfer characteristics : BT.709
Matrix coefficients : BT.709

Audio
ID : 2
Format : DTS
Format/Info : Digital Theater Systems
Format profile : MA / Core
Mode : 16
Format settings, Endianness : Big
Codec ID : A_DTS
Duration : 44 min 25 s
Bit rate mode : Variable / Constant
Bit rate : 3 617 kb/s / 1 509 kb/s
Channel(s) : 6 channels
Channel positions : Front: L C R, Side: L R, LFE
Sampling rate : 48.0 kHz
Frame rate : 93.750 FPS (512 SPF)
Bit depth : 24 bits
Compression mode : Lossless / Lossy
Stream size : 1.12 GiB (15%)
Title : DTS-HD MA 5.1
Language : English
Default : Yes
Forced : No

Text #1
ID : 3
Format : PGS
Codec ID : S_HDMV/PGS
Codec ID/Info : Picture based subtitle format used on BDs/HD-DVDs
Duration : 44 min 11 s
Bit rate : 54.1 kb/s
Count of elements : 1408
Stream size : 17.1 MiB (0%)
Title : English (SDH)
Language : English
Default : No
Forced : No

Text #2
ID : 4
Format : PGS
Codec ID : S_HDMV/PGS
Codec ID/Info : Picture based subtitle format used on BDs/HD-DVDs
Duration : 44 min 11 s
Bit rate : 40.7 kb/s
Count of elements : 1460
Stream size : 12.9 MiB (0%)
Title : French
Language : French
Default : No
Forced : No

Text #3
ID : 5
Format : PGS
Codec ID : S_HDMV/PGS
Codec ID/Info : Picture based subtitle format used on BDs/HD-DVDs
Duration : 44 min 16 s
Bit rate : 51.4 kb/s
Count of elements : 1330
Stream size : 16.3 MiB (0%)
Title : Portuguese (Brazilian)
Language : Portuguese
Default : No
Forced : No

Text #4
ID : 6
Format : PGS
Codec ID : S_HDMV/PGS
Codec ID/Info : Picture based subtitle format used on BDs/HD-DVDs
Duration : 44 min 11 s
Bit rate : 48.0 kb/s
Count of elements : 1364
Stream size : 15.2 MiB (0%)
Title : Danish
Language : Danish
Default : No
Forced : No

Text #5
ID : 7
Format : PGS
Codec ID : S_HDMV/PGS
Codec ID/Info : Picture based subtitle format used on BDs/HD-DVDs
Duration : 44 min 11 s
Bit rate : 52.2 kb/s
Count of elements : 1374
Stream size : 16.5 MiB (0%)
Title : Finnish
Language : Finnish
Default : No
Forced : No

Text #6
ID : 8
Format : PGS
Codec ID : S_HDMV/PGS
Codec ID/Info : Picture based subtitle format used on BDs/HD-DVDs
Duration : 44 min 11 s
Bit rate : 56.8 kb/s
Count of elements : 1326
Stream size : 18.0 MiB (0%)
Title : German
Language : German
Default : No
Forced : No

Text #7
ID : 9
Format : PGS
Codec ID : S_HDMV/PGS
Codec ID/Info : Picture based subtitle format used on BDs/HD-DVDs
Duration : 43 min 24 s
Bit rate : 33.8 kb/s
Count of elements : 1400
Stream size : 10.5 MiB (0%)
Title : Japanese
Language : Japanese
Default : No
Forced : No

Text #8
ID : 10
Format : PGS
Codec ID : S_HDMV/PGS
Codec ID/Info : Picture based subtitle format used on BDs/HD-DVDs
Duration : 44 min 16 s
Bit rate : 46.8 kb/s
Count of elements : 1338
Stream size : 14.8 MiB (0%)
Title : Spanish (Latin American)
Language : Spanish
Default : No
Forced : No

Text #9
ID : 11
Format : PGS
Codec ID : S_HDMV/PGS
Codec ID/Info : Picture based subtitle format used on BDs/HD-DVDs
Duration : 44 min 11 s
Bit rate : 43.0 kb/s
Count of elements : 1156
Stream size : 13.6 MiB (0%)
Title : Dutch
Language : Dutch
Default : No
Forced : No

Text #10
ID : 12
Format : PGS
Codec ID : S_HDMV/PGS
Codec ID/Info : Picture based subtitle format used on BDs/HD-DVDs
Duration : 44 min 11 s
Bit rate : 51.0 kb/s
Count of elements : 1360
Stream size : 16.1 MiB (0%)
Title : Norwegian
Language : Norwegian
Default : No
Forced : No

Text #11
ID : 13
Format : PGS
Codec ID : S_HDMV/PGS
Codec ID/Info : Picture based subtitle format used on BDs/HD-DVDs
Duration : 44 min 11 s
Bit rate : 43.2 kb/s
Count of elements : 1278
Stream size : 13.7 MiB (0%)
Title : Swedish
Language : Swedish
Default : No
Forced : No

Menu
00:00:00.000 : en:00:00:00.000
00:02:19.973 : en:00:02:19.973
00:07:49.511 : en:00:07:49.511
00:10:33.091 : en:00:10:33.091
00:15:05.196 : en:00:15:05.196
00:20:06.455 : en:00:20:06.455
00:22:13.958 : en:00:22:13.958
00:26:18.660 : en:00:26:18.660
00:29:32.646 : en:00:29:32.646
00:31:58.542 : en:00:31:58.542
00:35:42.015 : en:00:35:42.015
00:39:01.881 : en:00:39:01.881





24 S08E02


24 S08E02


24 S08E02


24 S08E02


24 S08E02

All episodes