Tags
Language
Tags

24 S08E03

Posted By: Tavaz
1080p (FullHD) / BluRay Remux IMDb
24 S08E03

24 S08E03
BluRay Remux | MKV | 1920x1080 | English | H264 @ 20423 kbps | DTS | 41 min 15 s | 7.11 GiB
Subtitles: Swedish, Portuguese, Dutch, Finnish, Danish, German, Spanish, Japanese, French, Norwegian, English
Genre: Drama

24 is an American television series produced for the Fox network and syndicated worldwide, starring Kiefer Sutherland as Counter Terrorist Unit agent Jack Bauer. Each 24-episode season covers 24 hours in the life of Bauer, using the real time method of narration.

75d66232943142439171053410145984.mkv (7.1 GB)



General
Unique ID : 241515282376720440032967021107749557967 (0xB5B226C47C8D102DBFFABC20913796CF)
Complete name : ./75d66232943142439171053410145984.mkv
Format : Matroska
Format version : Version 4 / Version 2
File size : 7.11 GiB
Duration : 41 min 15 s
Overall bit rate mode : Variable
Overall bit rate : 24.7 Mb/s
Movie name : 24 S08E03
Encoded date : UTC 2017-08-09 21:11:04
Writing application : mkvmerge v13.0.0 ('The Juggler') 64bit
Writing library : libebml v1.3.4 + libmatroska v1.4.5

Video
ID : 1
Format : AVC
Format/Info : Advanced Video Codec
Format profile : High@L4.1
Format settings : CABAC / 4 Ref Frames
Format settings, CABAC : Yes
Format settings, RefFrames : 4 frames
Codec ID : V_MPEG4/ISO/AVC
Duration : 41 min 15 s
Bit rate mode : Variable
Bit rate : 20.4 Mb/s
Maximum bit rate : 34.0 Mb/s
Width : 1 920 pixels
Height : 1 080 pixels
Display aspect ratio : 16:9
Frame rate mode : Constant
Frame rate : 23.976 (24000/1001) FPS
Color space : YUV
Chroma subsampling : 4:2:0
Bit depth : 8 bits
Scan type : Progressive
Bits/(Pixel*Frame) : 0.411
Stream size : 5.89 GiB (83%)
Default : Yes
Forced : No
Color range : Limited
Color primaries : BT.709
Transfer characteristics : BT.709
Matrix coefficients : BT.709

Audio
ID : 2
Format : DTS
Format/Info : Digital Theater Systems
Format profile : MA / Core
Mode : 16
Format settings, Endianness : Big
Codec ID : A_DTS
Duration : 41 min 15 s
Bit rate mode : Variable / Constant
Bit rate : 3 840 kb/s / 1 509 kb/s
Channel(s) : 6 channels
Channel positions : Front: L C R, Side: L R, LFE
Sampling rate : 48.0 kHz
Frame rate : 93.750 FPS (512 SPF)
Bit depth : 24 bits
Compression mode : Lossless / Lossy
Stream size : 1.09 GiB (15%)
Title : DTS-HD MA 5.1
Language : English
Default : Yes
Forced : No

Text #1
ID : 3
Format : PGS
Codec ID : S_HDMV/PGS
Codec ID/Info : Picture based subtitle format used on BDs/HD-DVDs
Duration : 41 min 0 s
Bit rate : 48.4 kb/s
Count of elements : 1210
Stream size : 14.2 MiB (0%)
Title : English (SDH)
Language : English
Default : No
Forced : No

Text #2
ID : 4
Format : PGS
Codec ID : S_HDMV/PGS
Codec ID/Info : Picture based subtitle format used on BDs/HD-DVDs
Duration : 41 min 0 s
Bit rate : 34.6 kb/s
Count of elements : 1156
Stream size : 10.1 MiB (0%)
Title : French
Language : French
Default : No
Forced : No

Text #3
ID : 5
Format : PGS
Codec ID : S_HDMV/PGS
Codec ID/Info : Picture based subtitle format used on BDs/HD-DVDs
Duration : 41 min 5 s
Bit rate : 46.6 kb/s
Count of elements : 1158
Stream size : 13.7 MiB (0%)
Title : Portuguese (Brazilian)
Language : Portuguese
Default : No
Forced : No

Text #4
ID : 6
Format : PGS
Codec ID : S_HDMV/PGS
Codec ID/Info : Picture based subtitle format used on BDs/HD-DVDs
Duration : 41 min 0 s
Bit rate : 42.4 kb/s
Count of elements : 1164
Stream size : 12.4 MiB (0%)
Title : Danish
Language : Danish
Default : No
Forced : No

Text #5
ID : 7
Format : PGS
Codec ID : S_HDMV/PGS
Codec ID/Info : Picture based subtitle format used on BDs/HD-DVDs
Duration : 41 min 0 s
Bit rate : 37.2 kb/s
Count of elements : 858
Stream size : 10.9 MiB (0%)
Title : Finnish
Language : Finnish
Default : No
Forced : No

Text #6
ID : 8
Format : PGS
Codec ID : S_HDMV/PGS
Codec ID/Info : Picture based subtitle format used on BDs/HD-DVDs
Duration : 41 min 0 s
Bit rate : 52.5 kb/s
Count of elements : 1164
Stream size : 15.4 MiB (0%)
Title : German
Language : German
Default : No
Forced : No

Text #7
ID : 9
Format : PGS
Codec ID : S_HDMV/PGS
Codec ID/Info : Picture based subtitle format used on BDs/HD-DVDs
Duration : 40 min 15 s
Bit rate : 30.2 kb/s
Count of elements : 1182
Stream size : 8.70 MiB (0%)
Title : Japanese
Language : Japanese
Default : No
Forced : No

Text #8
ID : 10
Format : PGS
Codec ID : S_HDMV/PGS
Codec ID/Info : Picture based subtitle format used on BDs/HD-DVDs
Duration : 41 min 5 s
Bit rate : 42.4 kb/s
Count of elements : 1172
Stream size : 12.5 MiB (0%)
Title : Spanish (Latin American)
Language : Spanish
Default : No
Forced : No

Text #9
ID : 11
Format : PGS
Codec ID : S_HDMV/PGS
Codec ID/Info : Picture based subtitle format used on BDs/HD-DVDs
Duration : 41 min 0 s
Bit rate : 41.7 kb/s
Count of elements : 998
Stream size : 12.2 MiB (0%)
Title : Dutch
Language : Dutch
Default : No
Forced : No

Text #10
ID : 12
Format : PGS
Codec ID : S_HDMV/PGS
Codec ID/Info : Picture based subtitle format used on BDs/HD-DVDs
Duration : 41 min 0 s
Bit rate : 42.7 kb/s
Count of elements : 1162
Stream size : 12.5 MiB (0%)
Title : Norwegian
Language : Norwegian
Default : No
Forced : No

Text #11
ID : 13
Format : PGS
Codec ID : S_HDMV/PGS
Codec ID/Info : Picture based subtitle format used on BDs/HD-DVDs
Duration : 41 min 0 s
Bit rate : 36.5 kb/s
Count of elements : 1164
Stream size : 10.7 MiB (0%)
Title : Swedish
Language : Swedish
Default : No
Forced : No

Menu
00:00:00.000 : en:00:00:00.000
00:04:01.283 : en:00:04:01.283
00:06:19.671 : en:00:06:19.671
00:11:34.235 : en:00:11:34.235
00:15:23.131 : en:00:15:23.131
00:18:27.606 : en:00:18:27.606
00:22:00.986 : en:00:22:00.986
00:24:49.655 : en:00:24:49.655
00:28:54.524 : en:00:28:54.524
00:32:12.305 : en:00:32:12.305
00:36:08.958 : en:00:36:08.958
00:38:27.472 : en:00:38:27.472





24 S08E03


24 S08E03


24 S08E03


24 S08E03


24 S08E03

All episodes