Tags
Language
Tags

24 S08E05

Posted By: Tavaz
1080p (FullHD) / BluRay Remux IMDb
24 S08E05

24 S08E05
BluRay Remux | MKV | 1920x1080 | English | H264 @ 20972 kbps | DTS | 44 min 5 s | 7.74 GiB
Subtitles: Swedish, Portuguese, Dutch, Finnish, Danish, German, Spanish, Japanese, French, Norwegian, English
Genre: Drama

24 is an American television series produced for the Fox network and syndicated worldwide, starring Kiefer Sutherland as Counter Terrorist Unit agent Jack Bauer. Each 24-episode season covers 24 hours in the life of Bauer, using the real time method of narration.

cf6ad81559b743ba95fdd96ff877657b.mkv (7.7 GB)



General
Unique ID : 230671389579555844511030266591931176752 (0xAD89B19313BB16A0AF357DB92FBA9730)
Complete name : ./cf6ad81559b743ba95fdd96ff877657b.mkv
Format : Matroska
Format version : Version 4 / Version 2
File size : 7.74 GiB
Duration : 44 min 5 s
Overall bit rate mode : Variable
Overall bit rate : 25.1 Mb/s
Movie name : 24 S08E05
Encoded date : UTC 2017-08-09 21:18:39
Writing application : mkvmerge v13.0.0 ('The Juggler') 64bit
Writing library : libebml v1.3.4 + libmatroska v1.4.5

Video
ID : 1
Format : AVC
Format/Info : Advanced Video Codec
Format profile : High@L4.1
Format settings : CABAC / 4 Ref Frames
Format settings, CABAC : Yes
Format settings, RefFrames : 4 frames
Codec ID : V_MPEG4/ISO/AVC
Duration : 44 min 5 s
Bit rate mode : Variable
Bit rate : 21.0 Mb/s
Maximum bit rate : 34.0 Mb/s
Width : 1 920 pixels
Height : 1 080 pixels
Display aspect ratio : 16:9
Frame rate mode : Constant
Frame rate : 23.976 (24000/1001) FPS
Color space : YUV
Chroma subsampling : 4:2:0
Bit depth : 8 bits
Scan type : Progressive
Bits/(Pixel*Frame) : 0.422
Stream size : 6.46 GiB (84%)
Default : Yes
Forced : No
Color range : Limited
Color primaries : BT.709
Transfer characteristics : BT.709
Matrix coefficients : BT.709

Audio
ID : 2
Format : DTS
Format/Info : Digital Theater Systems
Format profile : MA / Core
Mode : 16
Format settings, Endianness : Big
Codec ID : A_DTS
Duration : 44 min 5 s
Bit rate mode : Variable / Constant
Bit rate : 3 710 kb/s / 1 509 kb/s
Channel(s) : 6 channels
Channel positions : Front: L C R, Side: L R, LFE
Sampling rate : 48.0 kHz
Frame rate : 93.750 FPS (512 SPF)
Bit depth : 24 bits
Compression mode : Lossless / Lossy
Stream size : 1.14 GiB (15%)
Title : DTS-HD MA 5.1
Language : English
Default : Yes
Forced : No

Text #1
ID : 3
Format : PGS
Codec ID : S_HDMV/PGS
Codec ID/Info : Picture based subtitle format used on BDs/HD-DVDs
Duration : 43 min 52 s
Bit rate : 45.6 kb/s
Count of elements : 1346
Stream size : 14.3 MiB (0%)
Title : English (SDH)
Language : English
Default : No
Forced : No

Text #2
ID : 4
Format : PGS
Codec ID : S_HDMV/PGS
Codec ID/Info : Picture based subtitle format used on BDs/HD-DVDs
Duration : 43 min 52 s
Bit rate : 34.3 kb/s
Count of elements : 1358
Stream size : 10.8 MiB (0%)
Title : French
Language : French
Default : No
Forced : No

Text #3
ID : 5
Format : PGS
Codec ID : S_HDMV/PGS
Codec ID/Info : Picture based subtitle format used on BDs/HD-DVDs
Duration : 43 min 56 s
Bit rate : 45.9 kb/s
Count of elements : 1308
Stream size : 14.4 MiB (0%)
Title : Portuguese (Brazilian)
Language : Portuguese
Default : No
Forced : No

Text #4
ID : 6
Format : PGS
Codec ID : S_HDMV/PGS
Codec ID/Info : Picture based subtitle format used on BDs/HD-DVDs
Duration : 43 min 52 s
Bit rate : 37.1 kb/s
Count of elements : 1310
Stream size : 11.7 MiB (0%)
Title : Danish
Language : Danish
Default : No
Forced : No

Text #5
ID : 7
Format : PGS
Codec ID : S_HDMV/PGS
Codec ID/Info : Picture based subtitle format used on BDs/HD-DVDs
Duration : 43 min 52 s
Bit rate : 35.7 kb/s
Count of elements : 1010
Stream size : 11.2 MiB (0%)
Title : Finnish
Language : Finnish
Default : No
Forced : No

Text #6
ID : 8
Format : PGS
Codec ID : S_HDMV/PGS
Codec ID/Info : Picture based subtitle format used on BDs/HD-DVDs
Duration : 43 min 52 s
Bit rate : 48.8 kb/s
Count of elements : 1310
Stream size : 15.3 MiB (0%)
Title : German
Language : German
Default : No
Forced : No

Text #7
ID : 9
Format : PGS
Codec ID : S_HDMV/PGS
Codec ID/Info : Picture based subtitle format used on BDs/HD-DVDs
Duration : 43 min 6 s
Bit rate : 28.9 kb/s
Count of elements : 1424
Stream size : 8.90 MiB (0%)
Title : Japanese
Language : Japanese
Default : No
Forced : No

Text #8
ID : 10
Format : PGS
Codec ID : S_HDMV/PGS
Codec ID/Info : Picture based subtitle format used on BDs/HD-DVDs
Duration : 43 min 56 s
Bit rate : 40.2 kb/s
Count of elements : 1310
Stream size : 12.6 MiB (0%)
Title : Spanish (Latin American)
Language : Spanish
Default : No
Forced : No

Text #9
ID : 11
Format : PGS
Codec ID : S_HDMV/PGS
Codec ID/Info : Picture based subtitle format used on BDs/HD-DVDs
Duration : 43 min 52 s
Bit rate : 40.6 kb/s
Count of elements : 1134
Stream size : 12.7 MiB (0%)
Title : Dutch
Language : Dutch
Default : No
Forced : No

Text #10
ID : 12
Format : PGS
Codec ID : S_HDMV/PGS
Codec ID/Info : Picture based subtitle format used on BDs/HD-DVDs
Duration : 43 min 52 s
Bit rate : 35.6 kb/s
Count of elements : 1308
Stream size : 11.2 MiB (0%)
Title : Norwegian
Language : Norwegian
Default : No
Forced : No

Text #11
ID : 13
Format : PGS
Codec ID : S_HDMV/PGS
Codec ID/Info : Picture based subtitle format used on BDs/HD-DVDs
Duration : 43 min 52 s
Bit rate : 36.4 kb/s
Count of elements : 1310
Stream size : 11.4 MiB (0%)
Title : Swedish
Language : Swedish
Default : No
Forced : No

Menu
00:00:00.000 : en:00:00:00.000
00:01:58.869 : en:00:01:58.869
00:05:34.918 : en:00:05:34.918
00:09:23.813 : en:00:09:23.813
00:11:49.292 : en:00:11:49.292
00:15:07.031 : en:00:15:07.031
00:18:18.180 : en:00:18:18.180
00:21:41.467 : en:00:21:41.467
00:25:20.352 : en:00:25:20.352
00:30:52.601 : en:00:30:52.601
00:36:05.038 : en:00:36:05.038
00:37:24.993 : en:00:37:24.993





24 S08E05


24 S08E05


24 S08E05


24 S08E05


24 S08E05

All episodes