Tags
Language
Tags

24 S08E06

Posted By: Tavaz
1080p (FullHD) / BluRay Remux IMDb
24 S08E06

24 S08E06
BluRay Remux | MKV | 1920x1080 | English | H264 @ 20717 kbps | DTS | 45 min 42 s | 7.92 GiB
Subtitles: Swedish, Portuguese, Dutch, Finnish, Danish, German, Spanish, Japanese, French, Norwegian, English
Genre: Drama

24 is an American television series produced for the Fox network and syndicated worldwide, starring Kiefer Sutherland as Counter Terrorist Unit agent Jack Bauer. Each 24-episode season covers 24 hours in the life of Bauer, using the real time method of narration.

c52a2481552f42878918d4425a8cbcc5.mkv (7.9 GB)



General
Unique ID : 254028312762539405078911278145459162551 (0xBF1C12CC1F39716396E4017DE6438DB7)
Complete name : ./c52a2481552f42878918d4425a8cbcc5.mkv
Format : Matroska
Format version : Version 4 / Version 2
File size : 7.92 GiB
Duration : 45 min 42 s
Overall bit rate mode : Variable
Overall bit rate : 24.8 Mb/s
Movie name : 24 S08E06
Encoded date : UTC 2017-08-09 21:21:31
Writing application : mkvmerge v13.0.0 ('The Juggler') 64bit
Writing library : libebml v1.3.4 + libmatroska v1.4.5

Video
ID : 1
Format : AVC
Format/Info : Advanced Video Codec
Format profile : High@L4.1
Format settings : CABAC / 4 Ref Frames
Format settings, CABAC : Yes
Format settings, RefFrames : 4 frames
Codec ID : V_MPEG4/ISO/AVC
Duration : 45 min 42 s
Bit rate mode : Variable
Bit rate : 20.7 Mb/s
Maximum bit rate : 34.0 Mb/s
Width : 1 920 pixels
Height : 1 080 pixels
Display aspect ratio : 16:9
Frame rate mode : Constant
Frame rate : 23.976 (24000/1001) FPS
Color space : YUV
Chroma subsampling : 4:2:0
Bit depth : 8 bits
Scan type : Progressive
Bits/(Pixel*Frame) : 0.417
Stream size : 6.61 GiB (83%)
Default : Yes
Forced : No
Color range : Limited
Color primaries : BT.709
Transfer characteristics : BT.709
Matrix coefficients : BT.709

Audio
ID : 2
Format : DTS
Format/Info : Digital Theater Systems
Format profile : MA / Core
Mode : 16
Format settings, Endianness : Big
Codec ID : A_DTS
Duration : 45 min 42 s
Bit rate mode : Variable / Constant
Bit rate : 3 677 kb/s / 1 509 kb/s
Channel(s) : 6 channels
Channel positions : Front: L C R, Side: L R, LFE
Sampling rate : 48.0 kHz
Frame rate : 93.750 FPS (512 SPF)
Bit depth : 24 bits
Compression mode : Lossless / Lossy
Stream size : 1.17 GiB (15%)
Title : DTS-HD MA 5.1
Language : English
Default : Yes
Forced : No

Text #1
ID : 3
Format : PGS
Codec ID : S_HDMV/PGS
Codec ID/Info : Picture based subtitle format used on BDs/HD-DVDs
Duration : 45 min 29 s
Bit rate : 43.6 kb/s
Count of elements : 1376
Stream size : 14.2 MiB (0%)
Title : English (SDH)
Language : English
Default : No
Forced : No

Text #2
ID : 4
Format : PGS
Codec ID : S_HDMV/PGS
Codec ID/Info : Picture based subtitle format used on BDs/HD-DVDs
Duration : 45 min 29 s
Bit rate : 35.1 kb/s
Count of elements : 1300
Stream size : 11.4 MiB (0%)
Title : French
Language : French
Default : No
Forced : No

Text #3
ID : 5
Format : PGS
Codec ID : S_HDMV/PGS
Codec ID/Info : Picture based subtitle format used on BDs/HD-DVDs
Duration : 45 min 34 s
Bit rate : 44.1 kb/s
Count of elements : 1356
Stream size : 14.4 MiB (0%)
Title : Portuguese (Brazilian)
Language : Portuguese
Default : No
Forced : No

Text #4
ID : 6
Format : PGS
Codec ID : S_HDMV/PGS
Codec ID/Info : Picture based subtitle format used on BDs/HD-DVDs
Duration : 45 min 29 s
Bit rate : 35.8 kb/s
Count of elements : 1358
Stream size : 11.7 MiB (0%)
Title : Danish
Language : Danish
Default : No
Forced : No

Text #5
ID : 7
Format : PGS
Codec ID : S_HDMV/PGS
Codec ID/Info : Picture based subtitle format used on BDs/HD-DVDs
Duration : 45 min 29 s
Bit rate : 33.8 kb/s
Count of elements : 996
Stream size : 11.0 MiB (0%)
Title : Finnish
Language : Finnish
Default : No
Forced : No

Text #6
ID : 8
Format : PGS
Codec ID : S_HDMV/PGS
Codec ID/Info : Picture based subtitle format used on BDs/HD-DVDs
Duration : 45 min 29 s
Bit rate : 47.2 kb/s
Count of elements : 1350
Stream size : 15.4 MiB (0%)
Title : German
Language : German
Default : No
Forced : No

Text #7
ID : 9
Format : PGS
Codec ID : S_HDMV/PGS
Codec ID/Info : Picture based subtitle format used on BDs/HD-DVDs
Duration : 44 min 52 s
Bit rate : 27.4 kb/s
Count of elements : 1358
Stream size : 8.79 MiB (0%)
Title : Japanese
Language : Japanese
Default : No
Forced : No

Text #8
ID : 10
Format : PGS
Codec ID : S_HDMV/PGS
Codec ID/Info : Picture based subtitle format used on BDs/HD-DVDs
Duration : 45 min 34 s
Bit rate : 43.2 kb/s
Count of elements : 1370
Stream size : 14.1 MiB (0%)
Title : Spanish (Latin American)
Language : Spanish
Default : No
Forced : No

Text #9
ID : 11
Format : PGS
Codec ID : S_HDMV/PGS
Codec ID/Info : Picture based subtitle format used on BDs/HD-DVDs
Duration : 45 min 29 s
Bit rate : 39.4 kb/s
Count of elements : 1118
Stream size : 12.8 MiB (0%)
Title : Dutch
Language : Dutch
Default : No
Forced : No

Text #10
ID : 12
Format : PGS
Codec ID : S_HDMV/PGS
Codec ID/Info : Picture based subtitle format used on BDs/HD-DVDs
Duration : 45 min 29 s
Bit rate : 33.0 kb/s
Count of elements : 1360
Stream size : 10.7 MiB (0%)
Title : Norwegian
Language : Norwegian
Default : No
Forced : No

Text #11
ID : 13
Format : PGS
Codec ID : S_HDMV/PGS
Codec ID/Info : Picture based subtitle format used on BDs/HD-DVDs
Duration : 45 min 29 s
Bit rate : 39.4 kb/s
Count of elements : 1214
Stream size : 12.8 MiB (0%)
Title : Swedish
Language : Swedish
Default : No
Forced : No

Menu
00:00:00.000 : en:00:00:00.000
00:02:05.959 : en:00:02:05.959
00:06:53.747 : en:00:06:53.747
00:11:38.072 : en:00:11:38.072
00:15:26.300 : en:00:15:26.300
00:19:30.461 : en:00:19:30.461
00:22:44.196 : en:00:22:44.196
00:25:49.047 : en:00:25:49.047
00:28:53.273 : en:00:28:53.273
00:33:28.715 : en:00:33:28.715
00:36:31.314 : en:00:36:31.314
00:41:11.386 : en:00:41:11.386





24 S08E06


24 S08E06


24 S08E06


24 S08E06


24 S08E06

All episodes