Tags
Language
Tags

24 S08E07

Posted By: Tavaz
1080p (FullHD) / BluRay Remux IMDb
24 S08E07

24 S08E07
BluRay Remux | MKV | 1920x1080 | English | H264 @ 20922 kbps | DTS | 44 min 0 s | 7.68 GiB
Subtitles: Swedish, Portuguese, Dutch, Finnish, Danish, German, Spanish, Japanese, French, Norwegian, English
Genre: Drama

24 is an American television series produced for the Fox network and syndicated worldwide, starring Kiefer Sutherland as Counter Terrorist Unit agent Jack Bauer. Each 24-episode season covers 24 hours in the life of Bauer, using the real time method of narration.

4df8f83e8e2b4761a80e77bebbb173ae.mkv (7.7 GB)



General
Unique ID : 195642650102859345465623325464747259661 (0x932F6760F5ACDB3182FED1DB66FB370D)
Complete name : ./4df8f83e8e2b4761a80e77bebbb173ae.mkv
Format : Matroska
Format version : Version 4 / Version 2
File size : 7.68 GiB
Duration : 44 min 0 s
Overall bit rate mode : Variable
Overall bit rate : 25.0 Mb/s
Movie name : 24 S08E07
Encoded date : UTC 2017-08-09 21:24:40
Writing application : mkvmerge v13.0.0 ('The Juggler') 64bit
Writing library : libebml v1.3.4 + libmatroska v1.4.5

Video
ID : 1
Format : AVC
Format/Info : Advanced Video Codec
Format profile : High@L4.1
Format settings : CABAC / 4 Ref Frames
Format settings, CABAC : Yes
Format settings, RefFrames : 4 frames
Codec ID : V_MPEG4/ISO/AVC
Duration : 44 min 0 s
Bit rate mode : Variable
Bit rate : 20.9 Mb/s
Maximum bit rate : 34.0 Mb/s
Width : 1 920 pixels
Height : 1 080 pixels
Display aspect ratio : 16:9
Frame rate mode : Constant
Frame rate : 23.976 (24000/1001) FPS
Color space : YUV
Chroma subsampling : 4:2:0
Bit depth : 8 bits
Scan type : Progressive
Bits/(Pixel*Frame) : 0.421
Stream size : 6.43 GiB (84%)
Default : Yes
Forced : No
Color range : Limited
Color primaries : BT.709
Transfer characteristics : BT.709
Matrix coefficients : BT.709

Audio
ID : 2
Format : DTS
Format/Info : Digital Theater Systems
Format profile : MA / Core
Mode : 16
Format settings, Endianness : Big
Codec ID : A_DTS
Duration : 44 min 0 s
Bit rate mode : Variable / Constant
Bit rate : 3 664 kb/s / 1 509 kb/s
Channel(s) : 6 channels
Channel positions : Front: L C R, Side: L R, LFE
Sampling rate : 48.0 kHz
Frame rate : 93.750 FPS (512 SPF)
Bit depth : 24 bits
Compression mode : Lossless / Lossy
Stream size : 1.13 GiB (15%)
Title : DTS-HD MA 5.1
Language : English
Default : Yes
Forced : No

Text #1
ID : 3
Format : PGS
Codec ID : S_HDMV/PGS
Codec ID/Info : Picture based subtitle format used on BDs/HD-DVDs
Duration : 43 min 47 s
Bit rate : 40.1 kb/s
Count of elements : 1248
Stream size : 12.6 MiB (0%)
Title : English (SDH)
Language : English
Default : No
Forced : No

Text #2
ID : 4
Format : PGS
Codec ID : S_HDMV/PGS
Codec ID/Info : Picture based subtitle format used on BDs/HD-DVDs
Duration : 43 min 47 s
Bit rate : 29.2 kb/s
Count of elements : 1198
Stream size : 9.15 MiB (0%)
Title : French
Language : French
Default : No
Forced : No

Text #3
ID : 5
Format : PGS
Codec ID : S_HDMV/PGS
Codec ID/Info : Picture based subtitle format used on BDs/HD-DVDs
Duration : 43 min 51 s
Bit rate : 36.4 kb/s
Count of elements : 1214
Stream size : 11.4 MiB (0%)
Title : Portuguese (Brazilian)
Language : Portuguese
Default : No
Forced : No

Text #4
ID : 6
Format : PGS
Codec ID : S_HDMV/PGS
Codec ID/Info : Picture based subtitle format used on BDs/HD-DVDs
Duration : 43 min 47 s
Bit rate : 31.7 kb/s
Count of elements : 1222
Stream size : 9.93 MiB (0%)
Title : Danish
Language : Danish
Default : No
Forced : No

Text #5
ID : 7
Format : PGS
Codec ID : S_HDMV/PGS
Codec ID/Info : Picture based subtitle format used on BDs/HD-DVDs
Duration : 43 min 47 s
Bit rate : 39.9 kb/s
Count of elements : 1216
Stream size : 12.5 MiB (0%)
Title : Finnish
Language : Finnish
Default : No
Forced : No

Text #6
ID : 8
Format : PGS
Codec ID : S_HDMV/PGS
Codec ID/Info : Picture based subtitle format used on BDs/HD-DVDs
Duration : 43 min 47 s
Bit rate : 42.9 kb/s
Count of elements : 1222
Stream size : 13.4 MiB (0%)
Title : German
Language : German
Default : No
Forced : No

Text #7
ID : 9
Format : PGS
Codec ID : S_HDMV/PGS
Codec ID/Info : Picture based subtitle format used on BDs/HD-DVDs
Duration : 42 min 47 s
Bit rate : 26.1 kb/s
Count of elements : 1272
Stream size : 8.00 MiB (0%)
Title : Japanese
Language : Japanese
Default : No
Forced : No

Text #8
ID : 10
Format : PGS
Codec ID : S_HDMV/PGS
Codec ID/Info : Picture based subtitle format used on BDs/HD-DVDs
Duration : 43 min 51 s
Bit rate : 35.9 kb/s
Count of elements : 1218
Stream size : 11.3 MiB (0%)
Title : Spanish (Latin American)
Language : Spanish
Default : No
Forced : No

Text #9
ID : 11
Format : PGS
Codec ID : S_HDMV/PGS
Codec ID/Info : Picture based subtitle format used on BDs/HD-DVDs
Duration : 43 min 47 s
Bit rate : 34.9 kb/s
Count of elements : 1024
Stream size : 10.9 MiB (0%)
Title : Dutch
Language : Dutch
Default : No
Forced : No

Text #10
ID : 12
Format : PGS
Codec ID : S_HDMV/PGS
Codec ID/Info : Picture based subtitle format used on BDs/HD-DVDs
Duration : 43 min 47 s
Bit rate : 32.9 kb/s
Count of elements : 1176
Stream size : 10.3 MiB (0%)
Title : Norwegian
Language : Norwegian
Default : No
Forced : No

Text #11
ID : 13
Format : PGS
Codec ID : S_HDMV/PGS
Codec ID/Info : Picture based subtitle format used on BDs/HD-DVDs
Duration : 43 min 47 s
Bit rate : 35.4 kb/s
Count of elements : 1134
Stream size : 11.1 MiB (0%)
Title : Swedish
Language : Swedish
Default : No
Forced : No

Menu
00:00:00.000 : en:00:00:00.000
00:02:15.927 : en:00:02:15.927
00:05:50.600 : en:00:05:50.600
00:08:21.835 : en:00:08:21.835
00:12:13.316 : en:00:12:13.316
00:18:06.085 : en:00:18:06.085
00:20:48.080 : en:00:20:48.080
00:24:48.654 : en:00:24:48.654
00:28:05.142 : en:00:28:05.142
00:31:06.531 : en:00:31:06.531
00:33:57.452 : en:00:33:57.452
00:38:04.115 : en:00:38:04.115





24 S08E07


24 S08E07


24 S08E07


24 S08E07


24 S08E07

All episodes