Tags
Language
Tags

24 S08E08

Posted By: Tavaz
1080p (FullHD) / BluRay Remux IMDb
24 S08E08

24 S08E08
BluRay Remux | MKV | 1920x1080 | English | H264 @ 20924 kbps | DTS | 44 min 0 s | 7.69 GiB
Subtitles: Swedish, Portuguese, Dutch, Finnish, Danish, German, Spanish, Japanese, French, Norwegian, English
Genre: Drama

24 is an American television series produced for the Fox network and syndicated worldwide, starring Kiefer Sutherland as Counter Terrorist Unit agent Jack Bauer. Each 24-episode season covers 24 hours in the life of Bauer, using the real time method of narration.

6b9c7b4f5145480a88859b942219a55a.mkv (7.7 GB)



General
Unique ID : 223112053581400084206396671129147933058 (0xA7D9D188DCF2742597812E1D687C0182)
Complete name : ./6b9c7b4f5145480a88859b942219a55a.mkv
Format : Matroska
Format version : Version 4 / Version 2
File size : 7.69 GiB
Duration : 44 min 0 s
Overall bit rate mode : Variable
Overall bit rate : 25.0 Mb/s
Movie name : 24 S08E08
Encoded date : UTC 2017-08-09 21:27:35
Writing application : mkvmerge v13.0.0 ('The Juggler') 64bit
Writing library : libebml v1.3.4 + libmatroska v1.4.5

Video
ID : 1
Format : AVC
Format/Info : Advanced Video Codec
Format profile : High@L4.1
Format settings : CABAC / 4 Ref Frames
Format settings, CABAC : Yes
Format settings, RefFrames : 4 frames
Codec ID : V_MPEG4/ISO/AVC
Duration : 44 min 0 s
Bit rate mode : Variable
Bit rate : 20.9 Mb/s
Maximum bit rate : 34.0 Mb/s
Width : 1 920 pixels
Height : 1 080 pixels
Display aspect ratio : 16:9
Frame rate mode : Constant
Frame rate : 23.976 (24000/1001) FPS
Color space : YUV
Chroma subsampling : 4:2:0
Bit depth : 8 bits
Scan type : Progressive
Bits/(Pixel*Frame) : 0.421
Stream size : 6.43 GiB (84%)
Default : Yes
Forced : No
Color range : Limited
Color primaries : BT.709
Transfer characteristics : BT.709
Matrix coefficients : BT.709

Audio
ID : 2
Format : DTS
Format/Info : Digital Theater Systems
Format profile : MA / Core
Mode : 16
Format settings, Endianness : Big
Codec ID : A_DTS
Duration : 44 min 0 s
Bit rate mode : Variable / Constant
Bit rate : 3 684 kb/s / 1 509 kb/s
Channel(s) : 6 channels
Channel positions : Front: L C R, Side: L R, LFE
Sampling rate : 48.0 kHz
Frame rate : 93.750 FPS (512 SPF)
Bit depth : 24 bits
Compression mode : Lossless / Lossy
Stream size : 1.13 GiB (15%)
Title : DTS-HD MA 5.1
Language : English
Default : Yes
Forced : No

Text #1
ID : 3
Format : PGS
Codec ID : S_HDMV/PGS
Codec ID/Info : Picture based subtitle format used on BDs/HD-DVDs
Duration : 43 min 47 s
Bit rate : 43.2 kb/s
Count of elements : 1158
Stream size : 13.5 MiB (0%)
Title : English (SDH)
Language : English
Default : No
Forced : No

Text #2
ID : 4
Format : PGS
Codec ID : S_HDMV/PGS
Codec ID/Info : Picture based subtitle format used on BDs/HD-DVDs
Duration : 43 min 47 s
Bit rate : 30.3 kb/s
Count of elements : 1122
Stream size : 9.49 MiB (0%)
Title : French
Language : French
Default : No
Forced : No

Text #3
ID : 5
Format : PGS
Codec ID : S_HDMV/PGS
Codec ID/Info : Picture based subtitle format used on BDs/HD-DVDs
Duration : 43 min 51 s
Bit rate : 38.3 kb/s
Count of elements : 1076
Stream size : 12.0 MiB (0%)
Title : Portuguese (Brazilian)
Language : Portuguese
Default : No
Forced : No

Text #4
ID : 6
Format : PGS
Codec ID : S_HDMV/PGS
Codec ID/Info : Picture based subtitle format used on BDs/HD-DVDs
Duration : 43 min 47 s
Bit rate : 33.2 kb/s
Count of elements : 1120
Stream size : 10.4 MiB (0%)
Title : Danish
Language : Danish
Default : No
Forced : No

Text #5
ID : 7
Format : PGS
Codec ID : S_HDMV/PGS
Codec ID/Info : Picture based subtitle format used on BDs/HD-DVDs
Duration : 43 min 47 s
Bit rate : 39.2 kb/s
Count of elements : 1096
Stream size : 12.3 MiB (0%)
Title : Finnish
Language : Finnish
Default : No
Forced : No

Text #6
ID : 8
Format : PGS
Codec ID : S_HDMV/PGS
Codec ID/Info : Picture based subtitle format used on BDs/HD-DVDs
Duration : 43 min 47 s
Bit rate : 42.9 kb/s
Count of elements : 1118
Stream size : 13.4 MiB (0%)
Title : German
Language : German
Default : No
Forced : No

Text #7
ID : 9
Format : PGS
Codec ID : S_HDMV/PGS
Codec ID/Info : Picture based subtitle format used on BDs/HD-DVDs
Duration : 42 min 56 s
Bit rate : 27.0 kb/s
Count of elements : 1122
Stream size : 8.29 MiB (0%)
Title : Japanese
Language : Japanese
Default : No
Forced : No

Text #8
ID : 10
Format : PGS
Codec ID : S_HDMV/PGS
Codec ID/Info : Picture based subtitle format used on BDs/HD-DVDs
Duration : 43 min 51 s
Bit rate : 39.7 kb/s
Count of elements : 1090
Stream size : 12.5 MiB (0%)
Title : Spanish (Latin American)
Language : Spanish
Default : No
Forced : No

Text #9
ID : 11
Format : PGS
Codec ID : S_HDMV/PGS
Codec ID/Info : Picture based subtitle format used on BDs/HD-DVDs
Duration : 43 min 47 s
Bit rate : 33.2 kb/s
Count of elements : 922
Stream size : 10.4 MiB (0%)
Title : Dutch
Language : Dutch
Default : No
Forced : No

Text #10
ID : 12
Format : PGS
Codec ID : S_HDMV/PGS
Codec ID/Info : Picture based subtitle format used on BDs/HD-DVDs
Duration : 43 min 47 s
Bit rate : 34.2 kb/s
Count of elements : 1098
Stream size : 10.7 MiB (0%)
Title : Norwegian
Language : Norwegian
Default : No
Forced : No

Text #11
ID : 13
Format : PGS
Codec ID : S_HDMV/PGS
Codec ID/Info : Picture based subtitle format used on BDs/HD-DVDs
Duration : 43 min 47 s
Bit rate : 38.6 kb/s
Count of elements : 1118
Stream size : 12.1 MiB (0%)
Title : Swedish
Language : Swedish
Default : No
Forced : No

Menu
00:00:00.000 : en:00:00:00.000
00:02:09.421 : en:00:02:09.421
00:06:38.398 : en:00:06:38.398
00:09:41.956 : en:00:09:41.956
00:11:51.252 : en:00:11:51.252
00:15:19.794 : en:00:15:19.794
00:19:35.049 : en:00:19:35.049
00:21:56.398 : en:00:21:56.398
00:24:23.587 : en:00:24:23.587
00:29:27.808 : en:00:29:27.808
00:35:37.260 : en:00:35:37.260
00:38:12.081 : en:00:38:12.081





24 S08E08


24 S08E08


24 S08E08


24 S08E08


24 S08E08

All episodes