Tags
Language
Tags

24 S08E09

Posted By: Tavaz
1080p (FullHD) / BluRay Remux IMDb
24 S08E09

24 S08E09
BluRay Remux | MKV | 1920x1080 | English | H264 @ 22421 kbps | DTS | 43 min 21 s | 8.04 GiB
Subtitles: Swedish, Portuguese, Dutch, Finnish, Danish, German, Spanish, Japanese, French, Norwegian, English
Genre: Drama

24 is an American television series produced for the Fox network and syndicated worldwide, starring Kiefer Sutherland as Counter Terrorist Unit agent Jack Bauer. Each 24-episode season covers 24 hours in the life of Bauer, using the real time method of narration.

a8e2bb1a8dc04f27925619ce7feb95b1.mkv (8.0 GB)



General
Unique ID : 246329472147089164821028232939165367593 (0xB95154A616CD2F42899FF156091EBD29)
Complete name : ./a8e2bb1a8dc04f27925619ce7feb95b1.mkv
Format : Matroska
Format version : Version 4 / Version 2
File size : 8.04 GiB
Duration : 43 min 21 s
Overall bit rate mode : Variable
Overall bit rate : 26.5 Mb/s
Movie name : 24 S08E09
Encoded date : UTC 2017-08-09 21:33:12
Writing application : mkvmerge v13.0.0 ('The Juggler') 64bit
Writing library : libebml v1.3.4 + libmatroska v1.4.5

Video
ID : 1
Format : AVC
Format/Info : Advanced Video Codec
Format profile : High@L4.1
Format settings : CABAC / 4 Ref Frames
Format settings, CABAC : Yes
Format settings, RefFrames : 4 frames
Codec ID : V_MPEG4/ISO/AVC
Duration : 43 min 21 s
Bit rate mode : Variable
Bit rate : 22.4 Mb/s
Maximum bit rate : 34.0 Mb/s
Width : 1 920 pixels
Height : 1 080 pixels
Display aspect ratio : 16:9
Frame rate mode : Constant
Frame rate : 23.976 (24000/1001) FPS
Color space : YUV
Chroma subsampling : 4:2:0
Bit depth : 8 bits
Scan type : Progressive
Bits/(Pixel*Frame) : 0.451
Stream size : 6.79 GiB (85%)
Default : Yes
Forced : No
Color range : Limited
Color primaries : BT.709
Transfer characteristics : BT.709
Matrix coefficients : BT.709

Audio
ID : 2
Format : DTS
Format/Info : Digital Theater Systems
Format profile : MA / Core
Mode : 16
Format settings, Endianness : Big
Codec ID : A_DTS
Duration : 43 min 21 s
Bit rate mode : Variable / Constant
Bit rate : 3 710 kb/s / 1 509 kb/s
Channel(s) : 6 channels
Channel positions : Front: L C R, Side: L R, LFE
Sampling rate : 48.0 kHz
Frame rate : 93.750 FPS (512 SPF)
Bit depth : 24 bits
Compression mode : Lossless / Lossy
Stream size : 1.12 GiB (14%)
Title : DTS-HD MA 5.1
Language : English
Default : Yes
Forced : No

Text #1
ID : 3
Format : PGS
Codec ID : S_HDMV/PGS
Codec ID/Info : Picture based subtitle format used on BDs/HD-DVDs
Duration : 43 min 7 s
Bit rate : 41.5 kb/s
Count of elements : 1208
Stream size : 12.8 MiB (0%)
Title : English (SDH)
Language : English
Default : No
Forced : No

Text #2
ID : 4
Format : PGS
Codec ID : S_HDMV/PGS
Codec ID/Info : Picture based subtitle format used on BDs/HD-DVDs
Duration : 43 min 7 s
Bit rate : 30.6 kb/s
Count of elements : 1136
Stream size : 9.44 MiB (0%)
Title : French
Language : French
Default : No
Forced : No

Text #3
ID : 5
Format : PGS
Codec ID : S_HDMV/PGS
Codec ID/Info : Picture based subtitle format used on BDs/HD-DVDs
Duration : 43 min 11 s
Bit rate : 39.9 kb/s
Count of elements : 1144
Stream size : 12.3 MiB (0%)
Title : Portuguese (Brazilian)
Language : Portuguese
Default : No
Forced : No

Text #4
ID : 6
Format : PGS
Codec ID : S_HDMV/PGS
Codec ID/Info : Picture based subtitle format used on BDs/HD-DVDs
Duration : 43 min 7 s
Bit rate : 32.6 kb/s
Count of elements : 1180
Stream size : 10.1 MiB (0%)
Title : Danish
Language : Danish
Default : No
Forced : No

Text #5
ID : 7
Format : PGS
Codec ID : S_HDMV/PGS
Codec ID/Info : Picture based subtitle format used on BDs/HD-DVDs
Duration : 43 min 7 s
Bit rate : 38.2 kb/s
Count of elements : 1154
Stream size : 11.8 MiB (0%)
Title : Finnish
Language : Finnish
Default : No
Forced : No

Text #6
ID : 8
Format : PGS
Codec ID : S_HDMV/PGS
Codec ID/Info : Picture based subtitle format used on BDs/HD-DVDs
Duration : 43 min 7 s
Bit rate : 42.7 kb/s
Count of elements : 1182
Stream size : 13.2 MiB (0%)
Title : German
Language : German
Default : No
Forced : No

Text #7
ID : 9
Format : PGS
Codec ID : S_HDMV/PGS
Codec ID/Info : Picture based subtitle format used on BDs/HD-DVDs
Duration : 42 min 11 s
Bit rate : 26.4 kb/s
Count of elements : 1192
Stream size : 7.96 MiB (0%)
Title : Japanese
Language : Japanese
Default : No
Forced : No

Text #8
ID : 10
Format : PGS
Codec ID : S_HDMV/PGS
Codec ID/Info : Picture based subtitle format used on BDs/HD-DVDs
Duration : 43 min 11 s
Bit rate : 38.3 kb/s
Count of elements : 1158
Stream size : 11.8 MiB (0%)
Title : Spanish (Latin American)
Language : Spanish
Default : No
Forced : No

Text #9
ID : 11
Format : PGS
Codec ID : S_HDMV/PGS
Codec ID/Info : Picture based subtitle format used on BDs/HD-DVDs
Duration : 43 min 7 s
Bit rate : 37.5 kb/s
Count of elements : 984
Stream size : 11.6 MiB (0%)
Title : Dutch
Language : Dutch
Default : No
Forced : No

Text #10
ID : 12
Format : PGS
Codec ID : S_HDMV/PGS
Codec ID/Info : Picture based subtitle format used on BDs/HD-DVDs
Duration : 43 min 7 s
Bit rate : 33.7 kb/s
Count of elements : 1138
Stream size : 10.4 MiB (0%)
Title : Norwegian
Language : Norwegian
Default : No
Forced : No

Text #11
ID : 13
Format : PGS
Codec ID : S_HDMV/PGS
Codec ID/Info : Picture based subtitle format used on BDs/HD-DVDs
Duration : 43 min 7 s
Bit rate : 37.2 kb/s
Count of elements : 1182
Stream size : 11.5 MiB (0%)
Title : Swedish
Language : Swedish
Default : No
Forced : No

Menu
00:00:00.000 : en:00:00:00.000
00:02:03.248 : en:00:02:03.248
00:06:14.916 : en:00:06:14.916
00:10:32.006 : en:00:10:32.006
00:12:48.017 : en:00:12:48.017
00:15:10.743 : en:00:15:10.743
00:18:43.289 : en:00:18:43.289
00:23:27.948 : en:00:23:27.948
00:26:53.695 : en:00:26:53.695
00:29:58.797 : en:00:29:58.797
00:32:50.010 : en:00:32:50.010
00:36:26.393 : en:00:36:26.393





24 S08E09


24 S08E09


24 S08E09


24 S08E09


24 S08E09

All episodes