Tags
Language
Tags

24 S08E10

Posted By: Tavaz
1080p (FullHD) / BluRay Remux IMDb
24 S08E10

24 S08E10
BluRay Remux | MKV | 1920x1080 | English | H264 @ 22426 kbps | DTS | 43 min 49 s | 8.13 GiB
Subtitles: Swedish, Portuguese, Dutch, Finnish, Danish, German, Spanish, Japanese, French, Norwegian, English
Genre: Drama

24 is an American television series produced for the Fox network and syndicated worldwide, starring Kiefer Sutherland as Counter Terrorist Unit agent Jack Bauer. Each 24-episode season covers 24 hours in the life of Bauer, using the real time method of narration.

f3a20bbd9ed64273bf131a2e0d01b347.mkv (8.1 GB)



General
Unique ID : 251634957739009965570674044166592491610 (0xBD4F2148C1857EC4BF32BACDAF73705A)
Complete name : ./f3a20bbd9ed64273bf131a2e0d01b347.mkv
Format : Matroska
Format version : Version 4 / Version 2
File size : 8.13 GiB
Duration : 43 min 49 s
Overall bit rate mode : Variable
Overall bit rate : 26.6 Mb/s
Movie name : 24 S08E10
Encoded date : UTC 2017-08-09 21:36:12
Writing application : mkvmerge v13.0.0 ('The Juggler') 64bit
Writing library : libebml v1.3.4 + libmatroska v1.4.5

Video
ID : 1
Format : AVC
Format/Info : Advanced Video Codec
Format profile : High@L4.1
Format settings : CABAC / 4 Ref Frames
Format settings, CABAC : Yes
Format settings, RefFrames : 4 frames
Codec ID : V_MPEG4/ISO/AVC
Duration : 43 min 49 s
Bit rate mode : Variable
Bit rate : 22.4 Mb/s
Maximum bit rate : 34.0 Mb/s
Width : 1 920 pixels
Height : 1 080 pixels
Display aspect ratio : 16:9
Frame rate mode : Constant
Frame rate : 23.976 (24000/1001) FPS
Color space : YUV
Chroma subsampling : 4:2:0
Bit depth : 8 bits
Scan type : Progressive
Bits/(Pixel*Frame) : 0.451
Stream size : 6.87 GiB (84%)
Default : Yes
Forced : No
Color range : Limited
Color primaries : BT.709
Transfer characteristics : BT.709
Matrix coefficients : BT.709

Audio
ID : 2
Format : DTS
Format/Info : Digital Theater Systems
Format profile : MA / Core
Mode : 16
Format settings, Endianness : Big
Codec ID : A_DTS
Duration : 43 min 49 s
Bit rate mode : Variable / Constant
Bit rate : 3 716 kb/s / 1 509 kb/s
Channel(s) : 6 channels
Channel positions : Front: L C R, Side: L R, LFE
Sampling rate : 48.0 kHz
Frame rate : 93.750 FPS (512 SPF)
Bit depth : 24 bits
Compression mode : Lossless / Lossy
Stream size : 1.14 GiB (14%)
Title : DTS-HD MA 5.1
Language : English
Default : Yes
Forced : No

Text #1
ID : 3
Format : PGS
Codec ID : S_HDMV/PGS
Codec ID/Info : Picture based subtitle format used on BDs/HD-DVDs
Duration : 43 min 34 s
Bit rate : 44.2 kb/s
Count of elements : 1234
Stream size : 13.8 MiB (0%)
Title : English (SDH)
Language : English
Default : No
Forced : No

Text #2
ID : 4
Format : PGS
Codec ID : S_HDMV/PGS
Codec ID/Info : Picture based subtitle format used on BDs/HD-DVDs
Duration : 43 min 34 s
Bit rate : 32.2 kb/s
Count of elements : 1180
Stream size : 10.0 MiB (0%)
Title : French
Language : French
Default : No
Forced : No

Text #3
ID : 5
Format : PGS
Codec ID : S_HDMV/PGS
Codec ID/Info : Picture based subtitle format used on BDs/HD-DVDs
Duration : 43 min 39 s
Bit rate : 42.0 kb/s
Count of elements : 1160
Stream size : 13.1 MiB (0%)
Title : Portuguese (Brazilian)
Language : Portuguese
Default : No
Forced : No

Text #4
ID : 6
Format : PGS
Codec ID : S_HDMV/PGS
Codec ID/Info : Picture based subtitle format used on BDs/HD-DVDs
Duration : 43 min 34 s
Bit rate : 39.4 kb/s
Count of elements : 1196
Stream size : 12.3 MiB (0%)
Title : Danish
Language : Danish
Default : No
Forced : No

Text #5
ID : 7
Format : PGS
Codec ID : S_HDMV/PGS
Codec ID/Info : Picture based subtitle format used on BDs/HD-DVDs
Duration : 43 min 34 s
Bit rate : 31.7 kb/s
Count of elements : 876
Stream size : 9.89 MiB (0%)
Title : Finnish
Language : Finnish
Default : No
Forced : No

Text #6
ID : 8
Format : PGS
Codec ID : S_HDMV/PGS
Codec ID/Info : Picture based subtitle format used on BDs/HD-DVDs
Duration : 43 min 34 s
Bit rate : 44.8 kb/s
Count of elements : 1196
Stream size : 14.0 MiB (0%)
Title : German
Language : German
Default : No
Forced : No

Text #7
ID : 9
Format : PGS
Codec ID : S_HDMV/PGS
Codec ID/Info : Picture based subtitle format used on BDs/HD-DVDs
Duration : 42 min 35 s
Bit rate : 26.6 kb/s
Count of elements : 1190
Stream size : 8.11 MiB (0%)
Title : Japanese
Language : Japanese
Default : No
Forced : No

Text #8
ID : 10
Format : PGS
Codec ID : S_HDMV/PGS
Codec ID/Info : Picture based subtitle format used on BDs/HD-DVDs
Duration : 43 min 39 s
Bit rate : 41.7 kb/s
Count of elements : 1178
Stream size : 13.0 MiB (0%)
Title : Spanish (Latin American)
Language : Spanish
Default : No
Forced : No

Text #9
ID : 11
Format : PGS
Codec ID : S_HDMV/PGS
Codec ID/Info : Picture based subtitle format used on BDs/HD-DVDs
Duration : 43 min 34 s
Bit rate : 37.3 kb/s
Count of elements : 1012
Stream size : 11.6 MiB (0%)
Title : Dutch
Language : Dutch
Default : No
Forced : No

Text #10
ID : 12
Format : PGS
Codec ID : S_HDMV/PGS
Codec ID/Info : Picture based subtitle format used on BDs/HD-DVDs
Duration : 43 min 34 s
Bit rate : 35.7 kb/s
Count of elements : 1152
Stream size : 11.1 MiB (0%)
Title : Norwegian
Language : Norwegian
Default : No
Forced : No

Text #11
ID : 13
Format : PGS
Codec ID : S_HDMV/PGS
Codec ID/Info : Picture based subtitle format used on BDs/HD-DVDs
Duration : 43 min 34 s
Bit rate : 39.1 kb/s
Count of elements : 1198
Stream size : 12.2 MiB (0%)
Title : Swedish
Language : Swedish
Default : No
Forced : No

Menu
00:00:00.000 : en:00:00:00.000
00:01:58.869 : en:00:01:58.869
00:04:51.583 : en:00:04:51.583
00:07:09.387 : en:00:07:09.387
00:09:52.801 : en:00:09:52.801
00:13:00.488 : en:00:13:00.488
00:17:36.764 : en:00:17:36.764
00:21:16.108 : en:00:21:16.108
00:27:03.497 : en:00:27:03.497
00:31:19.211 : en:00:31:19.211
00:34:37.284 : en:00:34:37.284
00:36:46.413 : en:00:36:46.413





24 S08E10


24 S08E10


24 S08E10


24 S08E10


24 S08E10

All episodes