Tags
Language
Tags

24 S08E11

Posted By: Tavaz
1080p (FullHD) / BluRay Remux IMDb
24 S08E11

24 S08E11
BluRay Remux | MKV | 1920x1080 | English | H264 @ 22430 kbps | DTS | 43 min 9 s | 8.01 GiB
Subtitles: Swedish, Portuguese, Dutch, Finnish, Danish, German, Spanish, Japanese, French, Norwegian, English
Genre: Drama

24 is an American television series produced for the Fox network and syndicated worldwide, starring Kiefer Sutherland as Counter Terrorist Unit agent Jack Bauer. Each 24-episode season covers 24 hours in the life of Bauer, using the real time method of narration.

a3705ea5a0234f6a89765385506d6f3e.mkv (8.0 GB)



General
Unique ID : 236488237639366316162351214678770416217 (0xB1E9FA537E35014091AB6542F8CB7A59)
Complete name : ./a3705ea5a0234f6a89765385506d6f3e.mkv
Format : Matroska
Format version : Version 4 / Version 2
File size : 8.01 GiB
Duration : 43 min 9 s
Overall bit rate mode : Variable
Overall bit rate : 26.6 Mb/s
Movie name : 24 S08E11
Encoded date : UTC 2017-08-09 21:39:13
Writing application : mkvmerge v13.0.0 ('The Juggler') 64bit
Writing library : libebml v1.3.4 + libmatroska v1.4.5

Video
ID : 1
Format : AVC
Format/Info : Advanced Video Codec
Format profile : High@L4.1
Format settings : CABAC / 4 Ref Frames
Format settings, CABAC : Yes
Format settings, RefFrames : 4 frames
Codec ID : V_MPEG4/ISO/AVC
Duration : 43 min 9 s
Bit rate mode : Variable
Bit rate : 22.4 Mb/s
Maximum bit rate : 34.0 Mb/s
Width : 1 920 pixels
Height : 1 080 pixels
Display aspect ratio : 16:9
Frame rate mode : Constant
Frame rate : 23.976 (24000/1001) FPS
Color space : YUV
Chroma subsampling : 4:2:0
Bit depth : 8 bits
Scan type : Progressive
Bits/(Pixel*Frame) : 0.451
Stream size : 6.76 GiB (84%)
Default : Yes
Forced : No
Color range : Limited
Color primaries : BT.709
Transfer characteristics : BT.709
Matrix coefficients : BT.709

Audio
ID : 2
Format : DTS
Format/Info : Digital Theater Systems
Format profile : MA / Core
Mode : 16
Format settings, Endianness : Big
Codec ID : A_DTS
Duration : 43 min 9 s
Bit rate mode : Variable / Constant
Bit rate : 3 633 kb/s / 1 509 kb/s
Channel(s) : 6 channels
Channel positions : Front: L C R, Side: L R, LFE
Sampling rate : 48.0 kHz
Frame rate : 93.750 FPS (512 SPF)
Bit depth : 24 bits
Compression mode : Lossless / Lossy
Stream size : 1.10 GiB (14%)
Title : DTS-HD MA 5.1
Language : English
Default : Yes
Forced : No

Text #1
ID : 3
Format : PGS
Codec ID : S_HDMV/PGS
Codec ID/Info : Picture based subtitle format used on BDs/HD-DVDs
Duration : 42 min 54 s
Bit rate : 49.0 kb/s
Count of elements : 1318
Stream size : 15.0 MiB (0%)
Title : English (SDH)
Language : English
Default : No
Forced : No

Text #2
ID : 4
Format : PGS
Codec ID : S_HDMV/PGS
Codec ID/Info : Picture based subtitle format used on BDs/HD-DVDs
Duration : 42 min 54 s
Bit rate : 35.7 kb/s
Count of elements : 1260
Stream size : 10.9 MiB (0%)
Title : French
Language : French
Default : No
Forced : No

Text #3
ID : 5
Format : PGS
Codec ID : S_HDMV/PGS
Codec ID/Info : Picture based subtitle format used on BDs/HD-DVDs
Duration : 42 min 59 s
Bit rate : 46.6 kb/s
Count of elements : 1232
Stream size : 14.3 MiB (0%)
Title : Portuguese (Brazilian)
Language : Portuguese
Default : No
Forced : No

Text #4
ID : 6
Format : PGS
Codec ID : S_HDMV/PGS
Codec ID/Info : Picture based subtitle format used on BDs/HD-DVDs
Duration : 42 min 54 s
Bit rate : 44.7 kb/s
Count of elements : 1272
Stream size : 13.7 MiB (0%)
Title : Danish
Language : Danish
Default : No
Forced : No

Text #5
ID : 7
Format : PGS
Codec ID : S_HDMV/PGS
Codec ID/Info : Picture based subtitle format used on BDs/HD-DVDs
Duration : 42 min 54 s
Bit rate : 44.3 kb/s
Count of elements : 1164
Stream size : 13.6 MiB (0%)
Title : Finnish
Language : Finnish
Default : No
Forced : No

Text #6
ID : 8
Format : PGS
Codec ID : S_HDMV/PGS
Codec ID/Info : Picture based subtitle format used on BDs/HD-DVDs
Duration : 42 min 54 s
Bit rate : 54.6 kb/s
Count of elements : 1278
Stream size : 16.8 MiB (0%)
Title : German
Language : German
Default : No
Forced : No

Text #7
ID : 9
Format : PGS
Codec ID : S_HDMV/PGS
Codec ID/Info : Picture based subtitle format used on BDs/HD-DVDs
Duration : 42 min 0 s
Bit rate : 31.3 kb/s
Count of elements : 1294
Stream size : 9.39 MiB (0%)
Title : Japanese
Language : Japanese
Default : No
Forced : No

Text #8
ID : 10
Format : PGS
Codec ID : S_HDMV/PGS
Codec ID/Info : Picture based subtitle format used on BDs/HD-DVDs
Duration : 42 min 59 s
Bit rate : 48.1 kb/s
Count of elements : 1284
Stream size : 14.8 MiB (0%)
Title : Spanish (Latin American)
Language : Spanish
Default : No
Forced : No

Text #9
ID : 11
Format : PGS
Codec ID : S_HDMV/PGS
Codec ID/Info : Picture based subtitle format used on BDs/HD-DVDs
Duration : 42 min 54 s
Bit rate : 42.2 kb/s
Count of elements : 1102
Stream size : 12.9 MiB (0%)
Title : Dutch
Language : Dutch
Default : No
Forced : No

Text #10
ID : 12
Format : PGS
Codec ID : S_HDMV/PGS
Codec ID/Info : Picture based subtitle format used on BDs/HD-DVDs
Duration : 42 min 54 s
Bit rate : 48.6 kb/s
Count of elements : 1270
Stream size : 14.9 MiB (0%)
Title : Norwegian
Language : Norwegian
Default : No
Forced : No

Text #11
ID : 13
Format : PGS
Codec ID : S_HDMV/PGS
Codec ID/Info : Picture based subtitle format used on BDs/HD-DVDs
Duration : 42 min 54 s
Bit rate : 43.1 kb/s
Count of elements : 1272
Stream size : 13.2 MiB (0%)
Title : Swedish
Language : Swedish
Default : No
Forced : No

Menu
00:00:00.000 : en:00:00:00.000
00:02:12.966 : en:00:02:12.966
00:05:24.783 : en:00:05:24.783
00:09:01.291 : en:00:09:01.291
00:11:37.322 : en:00:11:37.322
00:14:44.092 : en:00:14:44.092
00:20:51.750 : en:00:20:51.750
00:24:04.568 : en:00:24:04.568
00:26:10.235 : en:00:26:10.235
00:31:41.775 : en:00:31:41.775
00:34:03.708 : en:00:34:03.708
00:36:52.794 : en:00:36:52.794





24 S08E11


24 S08E11


24 S08E11


24 S08E11


24 S08E11

All episodes