Tags
Language
Tags

24 S08E12

Posted By: Tavaz
1080p (FullHD) / BluRay Remux IMDb
24 S08E12

24 S08E12
BluRay Remux | MKV | 1920x1080 | English | H264 @ 22535 kbps | DTS | 43 min 34 s | 8.12 GiB
Subtitles: Swedish, Portuguese, Dutch, Finnish, Danish, German, Spanish, Japanese, French, Norwegian, English
Genre: Drama

24 is an American television series produced for the Fox network and syndicated worldwide, starring Kiefer Sutherland as Counter Terrorist Unit agent Jack Bauer. Each 24-episode season covers 24 hours in the life of Bauer, using the real time method of narration.

0b17c8d7ec7d4c518bca274a141ee80e.mkv (8.1 GB)



General
Unique ID : 225055281317398191095391254824939179941 (0xA950120F1DF366A18B565EAEC6A44FA5)
Complete name : ./0b17c8d7ec7d4c518bca274a141ee80e.mkv
Format : Matroska
Format version : Version 4 / Version 2
File size : 8.12 GiB
Duration : 43 min 34 s
Overall bit rate mode : Variable
Overall bit rate : 26.7 Mb/s
Movie name : 24 S08E12
Encoded date : UTC 2017-08-09 21:42:11
Writing application : mkvmerge v13.0.0 ('The Juggler') 64bit
Writing library : libebml v1.3.4 + libmatroska v1.4.5

Video
ID : 1
Format : AVC
Format/Info : Advanced Video Codec
Format profile : High@L4.1
Format settings : CABAC / 4 Ref Frames
Format settings, CABAC : Yes
Format settings, RefFrames : 4 frames
Codec ID : V_MPEG4/ISO/AVC
Duration : 43 min 34 s
Bit rate mode : Variable
Bit rate : 22.5 Mb/s
Maximum bit rate : 34.0 Mb/s
Width : 1 920 pixels
Height : 1 080 pixels
Display aspect ratio : 16:9
Frame rate mode : Constant
Frame rate : 23.976 (24000/1001) FPS
Color space : YUV
Chroma subsampling : 4:2:0
Bit depth : 8 bits
Scan type : Progressive
Bits/(Pixel*Frame) : 0.453
Stream size : 6.86 GiB (84%)
Default : Yes
Forced : No
Color range : Limited
Color primaries : BT.709
Transfer characteristics : BT.709
Matrix coefficients : BT.709

Audio
ID : 2
Format : DTS
Format/Info : Digital Theater Systems
Format profile : MA / Core
Mode : 16
Format settings, Endianness : Big
Codec ID : A_DTS
Duration : 43 min 34 s
Bit rate mode : Variable / Constant
Bit rate : 3 723 kb/s / 1 509 kb/s
Channel(s) : 6 channels
Channel positions : Front: L C R, Side: L R, LFE
Sampling rate : 48.0 kHz
Frame rate : 93.750 FPS (512 SPF)
Bit depth : 24 bits
Compression mode : Lossless / Lossy
Stream size : 1.13 GiB (14%)
Title : DTS-HD MA 5.1
Language : English
Default : Yes
Forced : No

Text #1
ID : 3
Format : PGS
Codec ID : S_HDMV/PGS
Codec ID/Info : Picture based subtitle format used on BDs/HD-DVDs
Duration : 43 min 19 s
Bit rate : 43.4 kb/s
Count of elements : 1172
Stream size : 13.5 MiB (0%)
Title : English (SDH)
Language : English
Default : No
Forced : No

Text #2
ID : 4
Format : PGS
Codec ID : S_HDMV/PGS
Codec ID/Info : Picture based subtitle format used on BDs/HD-DVDs
Duration : 43 min 19 s
Bit rate : 32.8 kb/s
Count of elements : 1150
Stream size : 10.2 MiB (0%)
Title : French
Language : French
Default : No
Forced : No

Text #3
ID : 5
Format : PGS
Codec ID : S_HDMV/PGS
Codec ID/Info : Picture based subtitle format used on BDs/HD-DVDs
Duration : 43 min 24 s
Bit rate : 42.2 kb/s
Count of elements : 1114
Stream size : 13.1 MiB (0%)
Title : Portuguese (Brazilian)
Language : Portuguese
Default : No
Forced : No

Text #4
ID : 6
Format : PGS
Codec ID : S_HDMV/PGS
Codec ID/Info : Picture based subtitle format used on BDs/HD-DVDs
Duration : 43 min 19 s
Bit rate : 39.8 kb/s
Count of elements : 1140
Stream size : 12.3 MiB (0%)
Title : Danish
Language : Danish
Default : No
Forced : No

Text #5
ID : 7
Format : PGS
Codec ID : S_HDMV/PGS
Codec ID/Info : Picture based subtitle format used on BDs/HD-DVDs
Duration : 43 min 19 s
Bit rate : 42.3 kb/s
Count of elements : 1138
Stream size : 13.1 MiB (0%)
Title : Finnish
Language : Finnish
Default : No
Forced : No

Text #6
ID : 8
Format : PGS
Codec ID : S_HDMV/PGS
Codec ID/Info : Picture based subtitle format used on BDs/HD-DVDs
Duration : 43 min 19 s
Bit rate : 43.7 kb/s
Count of elements : 1142
Stream size : 13.5 MiB (0%)
Title : German
Language : German
Default : No
Forced : No

Text #7
ID : 9
Format : PGS
Codec ID : S_HDMV/PGS
Codec ID/Info : Picture based subtitle format used on BDs/HD-DVDs
Duration : 42 min 34 s
Bit rate : 26.4 kb/s
Count of elements : 1252
Stream size : 8.04 MiB (0%)
Title : Japanese
Language : Japanese
Default : No
Forced : No

Text #8
ID : 10
Format : PGS
Codec ID : S_HDMV/PGS
Codec ID/Info : Picture based subtitle format used on BDs/HD-DVDs
Duration : 43 min 24 s
Bit rate : 43.2 kb/s
Count of elements : 1154
Stream size : 13.4 MiB (0%)
Title : Spanish (Latin American)
Language : Spanish
Default : No
Forced : No

Text #9
ID : 11
Format : PGS
Codec ID : S_HDMV/PGS
Codec ID/Info : Picture based subtitle format used on BDs/HD-DVDs
Duration : 43 min 19 s
Bit rate : 34.7 kb/s
Count of elements : 996
Stream size : 10.7 MiB (0%)
Title : Dutch
Language : Dutch
Default : No
Forced : No

Text #10
ID : 12
Format : PGS
Codec ID : S_HDMV/PGS
Codec ID/Info : Picture based subtitle format used on BDs/HD-DVDs
Duration : 43 min 19 s
Bit rate : 41.6 kb/s
Count of elements : 1142
Stream size : 12.9 MiB (0%)
Title : Norwegian
Language : Norwegian
Default : No
Forced : No

Text #11
ID : 13
Format : PGS
Codec ID : S_HDMV/PGS
Codec ID/Info : Picture based subtitle format used on BDs/HD-DVDs
Duration : 43 min 19 s
Bit rate : 37.6 kb/s
Count of elements : 1142
Stream size : 11.6 MiB (0%)
Title : Swedish
Language : Swedish
Default : No
Forced : No

Menu
00:00:00.000 : en:00:00:00.000
00:01:50.193 : en:00:01:50.193
00:05:48.223 : en:00:05:48.223
00:11:48.416 : en:00:11:48.416
00:16:38.748 : en:00:16:38.748
00:18:52.381 : en:00:18:52.381
00:21:39.840 : en:00:21:39.840
00:25:18.058 : en:00:25:18.058
00:27:23.183 : en:00:27:23.183
00:31:09.159 : en:00:31:09.159
00:34:36.199 : en:00:34:36.199
00:40:39.729 : en:00:40:39.729





24 S08E12


24 S08E12


24 S08E12


24 S08E12


24 S08E12

All episodes