Tags
Language
Tags

24 S08E13

Posted By: Tavaz
1080p (FullHD) / BluRay Remux IMDb
24 S08E13

24 S08E13
BluRay Remux | MKV | 1920x1080 | English | H264 @ 21686 kbps | DTS | 45 min 11 s | 8.23 GiB
Subtitles: Swedish, Portuguese, Dutch, Finnish, Danish, German, Spanish, Japanese, French, Norwegian, English
Genre: Drama

24 is an American television series produced for the Fox network and syndicated worldwide, starring Kiefer Sutherland as Counter Terrorist Unit agent Jack Bauer. Each 24-episode season covers 24 hours in the life of Bauer, using the real time method of narration.

5e0d0ddc224f4b09b21a46f33e1be84a.mkv (8.2 GB)



General
Unique ID : 196627683918634476486871134791028710508 (0x93ED1D4BA41B2CE19CF2BA133E181C6C)
Complete name : ./5e0d0ddc224f4b09b21a46f33e1be84a.mkv
Format : Matroska
Format version : Version 4 / Version 2
File size : 8.23 GiB
Duration : 45 min 11 s
Overall bit rate mode : Variable
Overall bit rate : 26.1 Mb/s
Movie name : 24 S08E13
Encoded date : UTC 2017-08-09 21:49:07
Writing application : mkvmerge v13.0.0 ('The Juggler') 64bit
Writing library : libebml v1.3.4 + libmatroska v1.4.5

Video
ID : 1
Format : AVC
Format/Info : Advanced Video Codec
Format profile : High@L4.1
Format settings : CABAC / 4 Ref Frames
Format settings, CABAC : Yes
Format settings, RefFrames : 4 frames
Codec ID : V_MPEG4/ISO/AVC
Duration : 45 min 11 s
Bit rate mode : Variable
Bit rate : 21.7 Mb/s
Maximum bit rate : 34.0 Mb/s
Width : 1 920 pixels
Height : 1 080 pixels
Display aspect ratio : 16:9
Frame rate mode : Constant
Frame rate : 23.976 (24000/1001) FPS
Color space : YUV
Chroma subsampling : 4:2:0
Bit depth : 8 bits
Scan type : Progressive
Bits/(Pixel*Frame) : 0.436
Stream size : 6.85 GiB (83%)
Default : Yes
Forced : No
Color range : Limited
Color primaries : BT.709
Transfer characteristics : BT.709
Matrix coefficients : BT.709

Audio
ID : 2
Format : DTS
Format/Info : Digital Theater Systems
Format profile : MA / Core
Mode : 16
Format settings, Endianness : Big
Codec ID : A_DTS
Duration : 45 min 11 s
Bit rate mode : Variable / Constant
Bit rate : 3 949 kb/s / 1 509 kb/s
Channel(s) : 6 channels
Channel positions : Front: L C R, Side: L R, LFE
Sampling rate : 48.0 kHz
Frame rate : 93.750 FPS (512 SPF)
Bit depth : 24 bits
Compression mode : Lossless / Lossy
Stream size : 1.25 GiB (15%)
Title : DTS-HD MA 5.1
Language : English
Default : Yes
Forced : No

Text #1
ID : 3
Format : PGS
Codec ID : S_HDMV/PGS
Codec ID/Info : Picture based subtitle format used on BDs/HD-DVDs
Duration : 44 min 55 s
Bit rate : 45.5 kb/s
Count of elements : 1204
Stream size : 14.6 MiB (0%)
Title : English (SDH)
Language : English
Default : No
Forced : No

Text #2
ID : 4
Format : PGS
Codec ID : S_HDMV/PGS
Codec ID/Info : Picture based subtitle format used on BDs/HD-DVDs
Duration : 44 min 55 s
Bit rate : 31.5 kb/s
Count of elements : 1168
Stream size : 10.1 MiB (0%)
Title : French
Language : French
Default : No
Forced : No

Text #3
ID : 5
Format : PGS
Codec ID : S_HDMV/PGS
Codec ID/Info : Picture based subtitle format used on BDs/HD-DVDs
Duration : 45 min 0 s
Bit rate : 43.7 kb/s
Count of elements : 1144
Stream size : 14.1 MiB (0%)
Title : Portuguese (Brazilian)
Language : Portuguese
Default : No
Forced : No

Text #4
ID : 6
Format : PGS
Codec ID : S_HDMV/PGS
Codec ID/Info : Picture based subtitle format used on BDs/HD-DVDs
Duration : 44 min 55 s
Bit rate : 33.2 kb/s
Count of elements : 1076
Stream size : 10.7 MiB (0%)
Title : Danish
Language : Danish
Default : No
Forced : No

Text #5
ID : 7
Format : PGS
Codec ID : S_HDMV/PGS
Codec ID/Info : Picture based subtitle format used on BDs/HD-DVDs
Duration : 44 min 55 s
Bit rate : 43.2 kb/s
Count of elements : 1146
Stream size : 13.9 MiB (0%)
Title : Finnish
Language : Finnish
Default : No
Forced : No

Text #6
ID : 8
Format : PGS
Codec ID : S_HDMV/PGS
Codec ID/Info : Picture based subtitle format used on BDs/HD-DVDs
Duration : 44 min 55 s
Bit rate : 49.1 kb/s
Count of elements : 1158
Stream size : 15.8 MiB (0%)
Title : German
Language : German
Default : No
Forced : No

Text #7
ID : 9
Format : PGS
Codec ID : S_HDMV/PGS
Codec ID/Info : Picture based subtitle format used on BDs/HD-DVDs
Duration : 44 min 19 s
Bit rate : 26.5 kb/s
Count of elements : 1202
Stream size : 8.39 MiB (0%)
Title : Japanese
Language : Japanese
Default : No
Forced : No

Text #8
ID : 10
Format : PGS
Codec ID : S_HDMV/PGS
Codec ID/Info : Picture based subtitle format used on BDs/HD-DVDs
Duration : 45 min 0 s
Bit rate : 43.7 kb/s
Count of elements : 1144
Stream size : 14.1 MiB (0%)
Title : Spanish (Latin American)
Language : Spanish
Default : No
Forced : No

Text #9
ID : 11
Format : PGS
Codec ID : S_HDMV/PGS
Codec ID/Info : Picture based subtitle format used on BDs/HD-DVDs
Duration : 44 min 55 s
Bit rate : 39.1 kb/s
Count of elements : 1086
Stream size : 12.6 MiB (0%)
Title : Dutch
Language : Dutch
Default : No
Forced : No

Text #10
ID : 12
Format : PGS
Codec ID : S_HDMV/PGS
Codec ID/Info : Picture based subtitle format used on BDs/HD-DVDs
Duration : 44 min 55 s
Bit rate : 43.3 kb/s
Count of elements : 1150
Stream size : 13.9 MiB (0%)
Title : Norwegian
Language : Norwegian
Default : No
Forced : No

Text #11
ID : 13
Format : PGS
Codec ID : S_HDMV/PGS
Codec ID/Info : Picture based subtitle format used on BDs/HD-DVDs
Duration : 44 min 55 s
Bit rate : 39.0 kb/s
Count of elements : 1150
Stream size : 12.5 MiB (0%)
Title : Swedish
Language : Swedish
Default : No
Forced : No

Menu
00:00:00.000 : en:00:00:00.000
00:02:06.418 : en:00:02:06.418
00:04:54.419 : en:00:04:54.419
00:07:34.079 : en:00:07:34.079
00:12:34.295 : en:00:12:34.295
00:17:37.390 : en:00:17:37.390
00:19:51.607 : en:00:19:51.607
00:21:40.925 : en:00:21:40.925
00:27:08.585 : en:00:27:08.585
00:33:36.806 : en:00:33:36.806
00:35:26.875 : en:00:35:26.875
00:38:17.420 : en:00:38:17.420





24 S08E13


24 S08E13


24 S08E13


24 S08E13


24 S08E13

All episodes