Tags
Language
Tags

24 S08E15

Posted By: Tavaz
1080p (FullHD) / BluRay Remux IMDb
24 S08E15

24 S08E15
BluRay Remux | MKV | 1920x1080 | English | H264 @ 21911 kbps | DTS | 42 min 59 s | 7.84 GiB
Subtitles: Swedish, Portuguese, Dutch, Finnish, Danish, German, Spanish, Japanese, French, Norwegian, English
Genre: Drama

24 is an American television series produced for the Fox network and syndicated worldwide, starring Kiefer Sutherland as Counter Terrorist Unit agent Jack Bauer. Each 24-episode season covers 24 hours in the life of Bauer, using the real time method of narration.

53f36c71c83046148b21cfbae3efdaaa.mkv (7.8 GB)



General
Unique ID : 201992950686172503530235776807184346616 (0x97F66D5ED32DAEEA86F935F21BE7ADF8)
Complete name : ./53f36c71c83046148b21cfbae3efdaaa.mkv
Format : Matroska
Format version : Version 4 / Version 2
File size : 7.84 GiB
Duration : 42 min 59 s
Overall bit rate mode : Variable
Overall bit rate : 26.1 Mb/s
Movie name : 24 S08E15
Encoded date : UTC 2017-08-09 21:55:01
Writing application : mkvmerge v13.0.0 ('The Juggler') 64bit
Writing library : libebml v1.3.4 + libmatroska v1.4.5

Video
ID : 1
Format : AVC
Format/Info : Advanced Video Codec
Format profile : High@L4.1
Format settings : CABAC / 4 Ref Frames
Format settings, CABAC : Yes
Format settings, RefFrames : 4 frames
Codec ID : V_MPEG4/ISO/AVC
Duration : 42 min 59 s
Bit rate mode : Variable
Bit rate : 21.9 Mb/s
Maximum bit rate : 34.0 Mb/s
Width : 1 920 pixels
Height : 1 080 pixels
Display aspect ratio : 16:9
Frame rate mode : Constant
Frame rate : 23.976 (24000/1001) FPS
Color space : YUV
Chroma subsampling : 4:2:0
Bit depth : 8 bits
Scan type : Progressive
Bits/(Pixel*Frame) : 0.441
Stream size : 6.58 GiB (84%)
Default : Yes
Forced : No
Color range : Limited
Color primaries : BT.709
Transfer characteristics : BT.709
Matrix coefficients : BT.709

Audio
ID : 2
Format : DTS
Format/Info : Digital Theater Systems
Format profile : MA / Core
Mode : 16
Format settings, Endianness : Big
Codec ID : A_DTS
Duration : 42 min 59 s
Bit rate mode : Variable / Constant
Bit rate : 3 840 kb/s / 1 509 kb/s
Channel(s) : 6 channels
Channel positions : Front: L C R, Side: L R, LFE
Sampling rate : 48.0 kHz
Frame rate : 93.750 FPS (512 SPF)
Bit depth : 24 bits
Compression mode : Lossless / Lossy
Stream size : 1.14 GiB (15%)
Title : DTS-HD MA 5.1
Language : English
Default : Yes
Forced : No

Text #1
ID : 3
Format : PGS
Codec ID : S_HDMV/PGS
Codec ID/Info : Picture based subtitle format used on BDs/HD-DVDs
Duration : 42 min 44 s
Bit rate : 42.9 kb/s
Count of elements : 1166
Stream size : 13.1 MiB (0%)
Title : English (SDH)
Language : English
Default : No
Forced : No

Text #2
ID : 4
Format : PGS
Codec ID : S_HDMV/PGS
Codec ID/Info : Picture based subtitle format used on BDs/HD-DVDs
Duration : 42 min 44 s
Bit rate : 29.5 kb/s
Count of elements : 1078
Stream size : 9.02 MiB (0%)
Title : French
Language : French
Default : No
Forced : No

Text #3
ID : 5
Format : PGS
Codec ID : S_HDMV/PGS
Codec ID/Info : Picture based subtitle format used on BDs/HD-DVDs
Duration : 42 min 49 s
Bit rate : 40.1 kb/s
Count of elements : 1058
Stream size : 12.3 MiB (0%)
Title : Portuguese (Brazilian)
Language : Portuguese
Default : No
Forced : No

Text #4
ID : 6
Format : PGS
Codec ID : S_HDMV/PGS
Codec ID/Info : Picture based subtitle format used on BDs/HD-DVDs
Duration : 42 min 44 s
Bit rate : 29.9 kb/s
Count of elements : 1026
Stream size : 9.14 MiB (0%)
Title : Danish
Language : Danish
Default : No
Forced : No

Text #5
ID : 7
Format : PGS
Codec ID : S_HDMV/PGS
Codec ID/Info : Picture based subtitle format used on BDs/HD-DVDs
Duration : 42 min 44 s
Bit rate : 39.7 kb/s
Count of elements : 1068
Stream size : 12.2 MiB (0%)
Title : Finnish
Language : Finnish
Default : No
Forced : No

Text #6
ID : 8
Format : PGS
Codec ID : S_HDMV/PGS
Codec ID/Info : Picture based subtitle format used on BDs/HD-DVDs
Duration : 42 min 44 s
Bit rate : 46.1 kb/s
Count of elements : 1080
Stream size : 14.1 MiB (0%)
Title : German
Language : German
Default : No
Forced : No

Text #7
ID : 9
Format : PGS
Codec ID : S_HDMV/PGS
Codec ID/Info : Picture based subtitle format used on BDs/HD-DVDs
Duration : 41 min 46 s
Bit rate : 24.8 kb/s
Count of elements : 1144
Stream size : 7.40 MiB (0%)
Title : Japanese
Language : Japanese
Default : No
Forced : No

Text #8
ID : 10
Format : PGS
Codec ID : S_HDMV/PGS
Codec ID/Info : Picture based subtitle format used on BDs/HD-DVDs
Duration : 42 min 49 s
Bit rate : 39.6 kb/s
Count of elements : 1056
Stream size : 12.1 MiB (0%)
Title : Spanish (Latin American)
Language : Spanish
Default : No
Forced : No

Text #9
ID : 11
Format : PGS
Codec ID : S_HDMV/PGS
Codec ID/Info : Picture based subtitle format used on BDs/HD-DVDs
Duration : 42 min 44 s
Bit rate : 35.9 kb/s
Count of elements : 1062
Stream size : 11.0 MiB (0%)
Title : Dutch
Language : Dutch
Default : No
Forced : No

Text #10
ID : 12
Format : PGS
Codec ID : S_HDMV/PGS
Codec ID/Info : Picture based subtitle format used on BDs/HD-DVDs
Duration : 42 min 44 s
Bit rate : 40.5 kb/s
Count of elements : 1078
Stream size : 12.4 MiB (0%)
Title : Norwegian
Language : Norwegian
Default : No
Forced : No

Text #11
ID : 13
Format : PGS
Codec ID : S_HDMV/PGS
Codec ID/Info : Picture based subtitle format used on BDs/HD-DVDs
Duration : 42 min 44 s
Bit rate : 36.1 kb/s
Count of elements : 1070
Stream size : 11.0 MiB (0%)
Title : Swedish
Language : Swedish
Default : No
Forced : No

Menu
00:00:00.000 : en:00:00:00.000
00:01:57.117 : en:00:01:57.117
00:07:23.234 : en:00:07:23.234
00:11:05.915 : en:00:11:05.915
00:15:17.875 : en:00:15:17.875
00:18:55.760 : en:00:18:55.760
00:22:40.109 : en:00:22:40.109
00:24:09.323 : en:00:24:09.323
00:28:35.130 : en:00:28:35.130
00:31:08.867 : en:00:31:08.867
00:36:01.201 : en:00:36:01.201
00:40:46.486 : en:00:40:46.486





24 S08E15


24 S08E15


24 S08E15


24 S08E15


24 S08E15

All episodes