Tags
Language
Tags

24 S08E16

Posted By: Tavaz
1080p (FullHD) / BluRay Remux IMDb
24 S08E16

24 S08E16
BluRay Remux | MKV | 1920x1080 | English | H264 @ 21731 kbps | DTS | 46 min 26 s | 8.36 GiB
Subtitles: Swedish, Portuguese, Dutch, Finnish, Danish, German, Spanish, Japanese, French, Norwegian, English
Genre: Drama

24 is an American television series produced for the Fox network and syndicated worldwide, starring Kiefer Sutherland as Counter Terrorist Unit agent Jack Bauer. Each 24-episode season covers 24 hours in the life of Bauer, using the real time method of narration.

4c6ea2b4b027401d887aa41c96ad4df6.mkv (8.4 GB)



General
Unique ID : 238753862399935374416023578686771416319 (0xB39E52404903D33DA72AA2963087CCFF)
Complete name : ./4c6ea2b4b027401d887aa41c96ad4df6.mkv
Format : Matroska
Format version : Version 4 / Version 2
File size : 8.36 GiB
Duration : 46 min 26 s
Overall bit rate mode : Variable
Overall bit rate : 25.8 Mb/s
Movie name : 24 S08E16
Encoded date : UTC 2017-08-09 21:57:57
Writing application : mkvmerge v13.0.0 ('The Juggler') 64bit
Writing library : libebml v1.3.4 + libmatroska v1.4.5

Video
ID : 1
Format : AVC
Format/Info : Advanced Video Codec
Format profile : High@L4.1
Format settings : CABAC / 4 Ref Frames
Format settings, CABAC : Yes
Format settings, RefFrames : 4 frames
Codec ID : V_MPEG4/ISO/AVC
Duration : 46 min 26 s
Bit rate mode : Variable
Bit rate : 21.7 Mb/s
Maximum bit rate : 34.0 Mb/s
Width : 1 920 pixels
Height : 1 080 pixels
Display aspect ratio : 16:9
Frame rate mode : Constant
Frame rate : 23.976 (24000/1001) FPS
Color space : YUV
Chroma subsampling : 4:2:0
Bit depth : 8 bits
Scan type : Progressive
Bits/(Pixel*Frame) : 0.437
Stream size : 7.05 GiB (84%)
Default : Yes
Forced : No
Color range : Limited
Color primaries : BT.709
Transfer characteristics : BT.709
Matrix coefficients : BT.709

Audio
ID : 2
Format : DTS
Format/Info : Digital Theater Systems
Format profile : MA / Core
Mode : 16
Format settings, Endianness : Big
Codec ID : A_DTS
Duration : 46 min 26 s
Bit rate mode : Variable / Constant
Bit rate : 3 624 kb/s / 1 509 kb/s
Channel(s) : 6 channels
Channel positions : Front: L C R, Side: L R, LFE
Sampling rate : 48.0 kHz
Frame rate : 93.750 FPS (512 SPF)
Bit depth : 24 bits
Compression mode : Lossless / Lossy
Stream size : 1.18 GiB (14%)
Title : DTS-HD MA 5.1
Language : English
Default : Yes
Forced : No

Text #1
ID : 3
Format : PGS
Codec ID : S_HDMV/PGS
Codec ID/Info : Picture based subtitle format used on BDs/HD-DVDs
Duration : 46 min 11 s
Bit rate : 43.8 kb/s
Count of elements : 1223
Stream size : 14.5 MiB (0%)
Title : English (SDH)
Language : English
Default : No
Forced : No

Text #2
ID : 4
Format : PGS
Codec ID : S_HDMV/PGS
Codec ID/Info : Picture based subtitle format used on BDs/HD-DVDs
Duration : 46 min 11 s
Bit rate : 32.7 kb/s
Count of elements : 1218
Stream size : 10.8 MiB (0%)
Title : French
Language : French
Default : No
Forced : No

Text #3
ID : 5
Format : PGS
Codec ID : S_HDMV/PGS
Codec ID/Info : Picture based subtitle format used on BDs/HD-DVDs
Duration : 46 min 16 s
Bit rate : 42.9 kb/s
Count of elements : 1187
Stream size : 14.2 MiB (0%)
Title : Portuguese (Brazilian)
Language : Portuguese
Default : No
Forced : No

Text #4
ID : 6
Format : PGS
Codec ID : S_HDMV/PGS
Codec ID/Info : Picture based subtitle format used on BDs/HD-DVDs
Duration : 46 min 11 s
Bit rate : 38.9 kb/s
Count of elements : 1203
Stream size : 12.8 MiB (0%)
Title : Danish
Language : Danish
Default : No
Forced : No

Text #5
ID : 7
Format : PGS
Codec ID : S_HDMV/PGS
Codec ID/Info : Picture based subtitle format used on BDs/HD-DVDs
Duration : 46 min 11 s
Bit rate : 37.4 kb/s
Count of elements : 1147
Stream size : 12.4 MiB (0%)
Title : Finnish
Language : Finnish
Default : No
Forced : No

Text #6
ID : 8
Format : PGS
Codec ID : S_HDMV/PGS
Codec ID/Info : Picture based subtitle format used on BDs/HD-DVDs
Duration : 46 min 11 s
Bit rate : 44.3 kb/s
Count of elements : 1222
Stream size : 14.6 MiB (0%)
Title : German
Language : German
Default : No
Forced : No

Text #7
ID : 9
Format : PGS
Codec ID : S_HDMV/PGS
Codec ID/Info : Picture based subtitle format used on BDs/HD-DVDs
Duration : 45 min 36 s
Bit rate : 26.7 kb/s
Count of elements : 1213
Stream size : 8.70 MiB (0%)
Title : Japanese
Language : Japanese
Default : No
Forced : No

Text #8
ID : 10
Format : PGS
Codec ID : S_HDMV/PGS
Codec ID/Info : Picture based subtitle format used on BDs/HD-DVDs
Duration : 46 min 16 s
Bit rate : 42.5 kb/s
Count of elements : 1185
Stream size : 14.1 MiB (0%)
Title : Spanish (Latin American)
Language : Spanish
Default : No
Forced : No

Text #9
ID : 11
Format : PGS
Codec ID : S_HDMV/PGS
Codec ID/Info : Picture based subtitle format used on BDs/HD-DVDs
Duration : 46 min 11 s
Bit rate : 38.2 kb/s
Count of elements : 1193
Stream size : 12.6 MiB (0%)
Title : Dutch
Language : Dutch
Default : No
Forced : No

Text #10
ID : 12
Format : PGS
Codec ID : S_HDMV/PGS
Codec ID/Info : Picture based subtitle format used on BDs/HD-DVDs
Duration : 46 min 11 s
Bit rate : 34.5 kb/s
Count of elements : 1201
Stream size : 11.4 MiB (0%)
Title : Norwegian
Language : Norwegian
Default : No
Forced : No

Text #11
ID : 13
Format : PGS
Codec ID : S_HDMV/PGS
Codec ID/Info : Picture based subtitle format used on BDs/HD-DVDs
Duration : 46 min 11 s
Bit rate : 41.3 kb/s
Count of elements : 1203
Stream size : 13.7 MiB (0%)
Title : Swedish
Language : Swedish
Default : No
Forced : No

Menu
00:00:00.000 : en:00:00:00.000
00:01:47.566 : en:00:01:47.566
00:06:28.680 : en:00:06:28.680
00:09:32.322 : en:00:09:32.322
00:12:45.306 : en:00:12:45.306
00:16:10.219 : en:00:16:10.219
00:18:56.469 : en:00:18:56.469
00:23:57.561 : en:00:23:57.561
00:26:42.810 : en:00:26:42.810
00:29:09.164 : en:00:29:09.164
00:35:38.762 : en:00:35:38.762
00:39:54.851 : en:00:39:54.851





24 S08E16


24 S08E16


24 S08E16


24 S08E16


24 S08E16

All episodes