Tags
Language
Tags

24 S08E17

Posted By: Tavaz
1080p (FullHD) / BluRay Remux IMDb
24 S08E17

24 S08E17
BluRay Remux | MKV | 1920x1080 | English | H264 @ 20718 kbps | DTS | 46 min 4 s | 7.96 GiB
Subtitles: Swedish, Portuguese, Dutch, Finnish, Danish, German, Spanish, Japanese, French, Norwegian, English
Genre: Drama

24 is an American television series produced for the Fox network and syndicated worldwide, starring Kiefer Sutherland as Counter Terrorist Unit agent Jack Bauer. Each 24-episode season covers 24 hours in the life of Bauer, using the real time method of narration.

a301b00b7c97495588819eed075cec60.mkv (8.0 GB)



General
Unique ID : 224691811074759947622571923680369111153 (0xA90A1197AED519DFA5E1E24004E0F071)
Complete name : ./a301b00b7c97495588819eed075cec60.mkv
Format : Matroska
Format version : Version 4 / Version 2
File size : 7.96 GiB
Duration : 46 min 4 s
Overall bit rate mode : Variable
Overall bit rate : 24.7 Mb/s
Movie name : 24 S08E17
Encoded date : UTC 2017-08-09 22:01:06
Writing application : mkvmerge v13.0.0 ('The Juggler') 64bit
Writing library : libebml v1.3.4 + libmatroska v1.4.5

Video
ID : 1
Format : AVC
Format/Info : Advanced Video Codec
Format profile : High@L4.1
Format settings : CABAC / 4 Ref Frames
Format settings, CABAC : Yes
Format settings, RefFrames : 4 frames
Codec ID : V_MPEG4/ISO/AVC
Duration : 46 min 4 s
Bit rate mode : Variable
Bit rate : 20.7 Mb/s
Maximum bit rate : 34.0 Mb/s
Width : 1 920 pixels
Height : 1 080 pixels
Display aspect ratio : 16:9
Frame rate mode : Constant
Frame rate : 23.976 (24000/1001) FPS
Color space : YUV
Chroma subsampling : 4:2:0
Bit depth : 8 bits
Scan type : Progressive
Bits/(Pixel*Frame) : 0.417
Stream size : 6.67 GiB (84%)
Default : Yes
Forced : No
Color range : Limited
Color primaries : BT.709
Transfer characteristics : BT.709
Matrix coefficients : BT.709

Audio
ID : 2
Format : DTS
Format/Info : Digital Theater Systems
Format profile : MA / Core
Mode : 16
Format settings, Endianness : Big
Codec ID : A_DTS
Duration : 46 min 4 s
Bit rate mode : Variable / Constant
Bit rate : 3 538 kb/s / 1 509 kb/s
Channel(s) : 6 channels
Channel positions : Front: L C R, Side: L R, LFE
Sampling rate : 48.0 kHz
Frame rate : 93.750 FPS (512 SPF)
Bit depth : 24 bits
Compression mode : Lossless / Lossy
Stream size : 1.14 GiB (14%)
Title : DTS-HD MA 5.1
Language : English
Default : Yes
Forced : No

Text #1
ID : 3
Format : PGS
Codec ID : S_HDMV/PGS
Codec ID/Info : Picture based subtitle format used on BDs/HD-DVDs
Duration : 45 min 50 s
Bit rate : 49.3 kb/s
Count of elements : 1340
Stream size : 16.2 MiB (0%)
Title : English (SDH)
Language : English
Default : No
Forced : No

Text #2
ID : 4
Format : PGS
Codec ID : S_HDMV/PGS
Codec ID/Info : Picture based subtitle format used on BDs/HD-DVDs
Duration : 45 min 50 s
Bit rate : 34.5 kb/s
Count of elements : 1248
Stream size : 11.3 MiB (0%)
Title : French
Language : French
Default : No
Forced : No

Text #3
ID : 5
Format : PGS
Codec ID : S_HDMV/PGS
Codec ID/Info : Picture based subtitle format used on BDs/HD-DVDs
Duration : 45 min 54 s
Bit rate : 46.0 kb/s
Count of elements : 1250
Stream size : 15.1 MiB (0%)
Title : Portuguese (Brazilian)
Language : Portuguese
Default : No
Forced : No

Text #4
ID : 6
Format : PGS
Codec ID : S_HDMV/PGS
Codec ID/Info : Picture based subtitle format used on BDs/HD-DVDs
Duration : 45 min 50 s
Bit rate : 43.1 kb/s
Count of elements : 1276
Stream size : 14.1 MiB (0%)
Title : Danish
Language : Danish
Default : No
Forced : No

Text #5
ID : 7
Format : PGS
Codec ID : S_HDMV/PGS
Codec ID/Info : Picture based subtitle format used on BDs/HD-DVDs
Duration : 45 min 50 s
Bit rate : 40.7 kb/s
Count of elements : 1224
Stream size : 13.3 MiB (0%)
Title : Finnish
Language : Finnish
Default : No
Forced : No

Text #6
ID : 8
Format : PGS
Codec ID : S_HDMV/PGS
Codec ID/Info : Picture based subtitle format used on BDs/HD-DVDs
Duration : 45 min 50 s
Bit rate : 49.9 kb/s
Count of elements : 1292
Stream size : 16.3 MiB (0%)
Title : German
Language : German
Default : No
Forced : No

Text #7
ID : 9
Format : PGS
Codec ID : S_HDMV/PGS
Codec ID/Info : Picture based subtitle format used on BDs/HD-DVDs
Duration : 45 min 14 s
Bit rate : 30.2 kb/s
Count of elements : 1266
Stream size : 9.76 MiB (0%)
Title : Japanese
Language : Japanese
Default : No
Forced : No

Text #8
ID : 10
Format : PGS
Codec ID : S_HDMV/PGS
Codec ID/Info : Picture based subtitle format used on BDs/HD-DVDs
Duration : 45 min 54 s
Bit rate : 47.0 kb/s
Count of elements : 1262
Stream size : 15.4 MiB (0%)
Title : Spanish (Latin American)
Language : Spanish
Default : No
Forced : No

Text #9
ID : 11
Format : PGS
Codec ID : S_HDMV/PGS
Codec ID/Info : Picture based subtitle format used on BDs/HD-DVDs
Duration : 45 min 50 s
Bit rate : 42.3 kb/s
Count of elements : 1270
Stream size : 13.9 MiB (0%)
Title : Dutch
Language : Dutch
Default : No
Forced : No

Text #10
ID : 12
Format : PGS
Codec ID : S_HDMV/PGS
Codec ID/Info : Picture based subtitle format used on BDs/HD-DVDs
Duration : 45 min 50 s
Bit rate : 38.2 kb/s
Count of elements : 1276
Stream size : 12.5 MiB (0%)
Title : Norwegian
Language : Norwegian
Default : No
Forced : No

Text #11
ID : 13
Format : PGS
Codec ID : S_HDMV/PGS
Codec ID/Info : Picture based subtitle format used on BDs/HD-DVDs
Duration : 45 min 50 s
Bit rate : 46.0 kb/s
Count of elements : 1278
Stream size : 15.1 MiB (0%)
Title : Swedish
Language : Swedish
Default : No
Forced : No

Menu
00:00:00.000 : en:00:00:00.000
00:01:45.397 : en:00:01:45.397
00:05:35.043 : en:00:05:35.043
00:08:59.080 : en:00:08:59.080
00:13:43.197 : en:00:13:43.197
00:16:42.835 : en:00:16:42.835
00:19:23.287 : en:00:19:23.287
00:24:17.790 : en:00:24:17.790
00:27:26.270 : en:00:27:26.270
00:30:21.695 : en:00:30:21.695
00:35:12.319 : en:00:35:12.319
00:40:03.109 : en:00:40:03.109





24 S08E17


24 S08E17


24 S08E17


24 S08E17


24 S08E17

All episodes