Tags
Language
Tags

24 S08E18

Posted By: Tavaz
1080p (FullHD) / BluRay Remux IMDb
24 S08E18

24 S08E18
BluRay Remux | MKV | 1920x1080 | English | H264 @ 20930 kbps | DTS | 44 min 0 s | 7.67 GiB
Subtitles: Swedish, Portuguese, Dutch, Finnish, Danish, German, Spanish, Japanese, French, Norwegian, English
Genre: Drama

24 is an American television series produced for the Fox network and syndicated worldwide, starring Kiefer Sutherland as Counter Terrorist Unit agent Jack Bauer. Each 24-episode season covers 24 hours in the life of Bauer, using the real time method of narration.

3095936d757741e2836ec94ae0d47447.mkv (7.7 GB)



General
Unique ID : 229699084719930050828055981032777291604 (0xACCE6F3E68DD89EDBDCD50F841899754)
Complete name : ./3095936d757741e2836ec94ae0d47447.mkv
Format : Matroska
Format version : Version 4 / Version 2
File size : 7.67 GiB
Duration : 44 min 0 s
Overall bit rate mode : Variable
Overall bit rate : 24.9 Mb/s
Movie name : 24 S08E18
Encoded date : UTC 2017-08-09 22:04:07
Writing application : mkvmerge v13.0.0 ('The Juggler') 64bit
Writing library : libebml v1.3.4 + libmatroska v1.4.5

Video
ID : 1
Format : AVC
Format/Info : Advanced Video Codec
Format profile : High@L4.1
Format settings : CABAC / 4 Ref Frames
Format settings, CABAC : Yes
Format settings, RefFrames : 4 frames
Codec ID : V_MPEG4/ISO/AVC
Duration : 44 min 0 s
Bit rate mode : Variable
Bit rate : 20.9 Mb/s
Maximum bit rate : 34.0 Mb/s
Width : 1 920 pixels
Height : 1 080 pixels
Display aspect ratio : 16:9
Frame rate mode : Constant
Frame rate : 23.976 (24000/1001) FPS
Color space : YUV
Chroma subsampling : 4:2:0
Bit depth : 8 bits
Scan type : Progressive
Bits/(Pixel*Frame) : 0.421
Stream size : 6.43 GiB (84%)
Default : Yes
Forced : No
Color range : Limited
Color primaries : BT.709
Transfer characteristics : BT.709
Matrix coefficients : BT.709

Audio
ID : 2
Format : DTS
Format/Info : Digital Theater Systems
Format profile : MA / Core
Mode : 16
Format settings, Endianness : Big
Codec ID : A_DTS
Duration : 44 min 0 s
Bit rate mode : Variable / Constant
Bit rate : 3 551 kb/s / 1 509 kb/s
Channel(s) : 6 channels
Channel positions : Front: L C R, Side: L R, LFE
Sampling rate : 48.0 kHz
Frame rate : 93.750 FPS (512 SPF)
Bit depth : 24 bits
Compression mode : Lossless / Lossy
Stream size : 1.09 GiB (14%)
Title : DTS-HD MA 5.1
Language : English
Default : Yes
Forced : No

Text #1
ID : 3
Format : PGS
Codec ID : S_HDMV/PGS
Codec ID/Info : Picture based subtitle format used on BDs/HD-DVDs
Duration : 43 min 44 s
Bit rate : 45.8 kb/s
Count of elements : 1238
Stream size : 14.3 MiB (0%)
Title : English (SDH)
Language : English
Default : No
Forced : No

Text #2
ID : 4
Format : PGS
Codec ID : S_HDMV/PGS
Codec ID/Info : Picture based subtitle format used on BDs/HD-DVDs
Duration : 43 min 44 s
Bit rate : 36.2 kb/s
Count of elements : 1178
Stream size : 11.3 MiB (0%)
Title : French
Language : French
Default : No
Forced : No

Text #3
ID : 5
Format : PGS
Codec ID : S_HDMV/PGS
Codec ID/Info : Picture based subtitle format used on BDs/HD-DVDs
Duration : 43 min 49 s
Bit rate : 43.7 kb/s
Count of elements : 1196
Stream size : 13.7 MiB (0%)
Title : Portuguese (Brazilian)
Language : Portuguese
Default : No
Forced : No

Text #4
ID : 6
Format : PGS
Codec ID : S_HDMV/PGS
Codec ID/Info : Picture based subtitle format used on BDs/HD-DVDs
Duration : 43 min 44 s
Bit rate : 40.2 kb/s
Count of elements : 1192
Stream size : 12.6 MiB (0%)
Title : Danish
Language : Danish
Default : No
Forced : No

Text #5
ID : 7
Format : PGS
Codec ID : S_HDMV/PGS
Codec ID/Info : Picture based subtitle format used on BDs/HD-DVDs
Duration : 43 min 44 s
Bit rate : 41.0 kb/s
Count of elements : 1030
Stream size : 12.8 MiB (0%)
Title : Finnish
Language : Finnish
Default : No
Forced : No

Text #6
ID : 8
Format : PGS
Codec ID : S_HDMV/PGS
Codec ID/Info : Picture based subtitle format used on BDs/HD-DVDs
Duration : 43 min 44 s
Bit rate : 48.5 kb/s
Count of elements : 1192
Stream size : 15.2 MiB (0%)
Title : German
Language : German
Default : No
Forced : No

Text #7
ID : 9
Format : PGS
Codec ID : S_HDMV/PGS
Codec ID/Info : Picture based subtitle format used on BDs/HD-DVDs
Duration : 42 min 56 s
Bit rate : 29.6 kb/s
Count of elements : 1208
Stream size : 9.08 MiB (0%)
Title : Japanese
Language : Japanese
Default : No
Forced : No

Text #8
ID : 10
Format : PGS
Codec ID : S_HDMV/PGS
Codec ID/Info : Picture based subtitle format used on BDs/HD-DVDs
Duration : 43 min 49 s
Bit rate : 44.5 kb/s
Count of elements : 1194
Stream size : 14.0 MiB (0%)
Title : Spanish (Latin American)
Language : Spanish
Default : No
Forced : No

Text #9
ID : 11
Format : PGS
Codec ID : S_HDMV/PGS
Codec ID/Info : Picture based subtitle format used on BDs/HD-DVDs
Duration : 43 min 44 s
Bit rate : 42.2 kb/s
Count of elements : 1112
Stream size : 13.2 MiB (0%)
Title : Dutch
Language : Dutch
Default : No
Forced : No

Text #10
ID : 12
Format : PGS
Codec ID : S_HDMV/PGS
Codec ID/Info : Picture based subtitle format used on BDs/HD-DVDs
Duration : 43 min 44 s
Bit rate : 36.2 kb/s
Count of elements : 1190
Stream size : 11.3 MiB (0%)
Title : Norwegian
Language : Norwegian
Default : No
Forced : No

Text #11
ID : 13
Format : PGS
Codec ID : S_HDMV/PGS
Codec ID/Info : Picture based subtitle format used on BDs/HD-DVDs
Duration : 43 min 44 s
Bit rate : 44.0 kb/s
Count of elements : 1190
Stream size : 13.8 MiB (0%)
Title : Swedish
Language : Swedish
Default : No
Forced : No

Menu
00:00:00.000 : en:00:00:00.000
00:02:22.142 : en:00:02:22.142
00:06:02.821 : en:00:06:02.821
00:10:41.057 : en:00:10:41.057
00:14:31.079 : en:00:14:31.079
00:17:44.939 : en:00:17:44.939
00:20:14.422 : en:00:20:14.422
00:23:22.318 : en:00:23:22.318
00:30:52.309 : en:00:30:52.309
00:33:43.605 : en:00:33:43.605
00:38:05.366 : en:00:38:05.366
00:40:57.705 : en:00:40:57.705





24 S08E18


24 S08E18


24 S08E18


24 S08E18


24 S08E18

All episodes