Tags
Language
Tags

24 S08E19

Posted By: Tavaz
1080p (FullHD) / BluRay Remux IMDb
24 S08E19

24 S08E19
BluRay Remux | MKV | 1920x1080 | English | H264 @ 20923 kbps | DTS | 43 min 59 s | 7.71 GiB
Subtitles: Swedish, Portuguese, Dutch, Finnish, Danish, German, Spanish, Japanese, French, Norwegian, English
Genre: Drama

24 is an American television series produced for the Fox network and syndicated worldwide, starring Kiefer Sutherland as Counter Terrorist Unit agent Jack Bauer. Each 24-episode season covers 24 hours in the life of Bauer, using the real time method of narration.

2912eccc5eb2403eb6d44e2063b95e8c.mkv (7.7 GB)



General
Unique ID : 196304421756133488224512425411383487834 (0x93AEDB3D86E26437A427F04238E56D5A)
Complete name : ./2912eccc5eb2403eb6d44e2063b95e8c.mkv
Format : Matroska
Format version : Version 4 / Version 2
File size : 7.71 GiB
Duration : 43 min 59 s
Overall bit rate mode : Variable
Overall bit rate : 25.1 Mb/s
Movie name : 24 S08E19
Encoded date : UTC 2017-08-09 22:06:57
Writing application : mkvmerge v13.0.0 ('The Juggler') 64bit
Writing library : libebml v1.3.4 + libmatroska v1.4.5

Video
ID : 1
Format : AVC
Format/Info : Advanced Video Codec
Format profile : High@L4.1
Format settings : CABAC / 4 Ref Frames
Format settings, CABAC : Yes
Format settings, RefFrames : 4 frames
Codec ID : V_MPEG4/ISO/AVC
Duration : 43 min 59 s
Bit rate mode : Variable
Bit rate : 20.9 Mb/s
Maximum bit rate : 34.0 Mb/s
Width : 1 920 pixels
Height : 1 080 pixels
Display aspect ratio : 16:9
Frame rate mode : Constant
Frame rate : 23.976 (24000/1001) FPS
Color space : YUV
Chroma subsampling : 4:2:0
Bit depth : 8 bits
Scan type : Progressive
Bits/(Pixel*Frame) : 0.421
Stream size : 6.43 GiB (83%)
Default : Yes
Forced : No
Color range : Limited
Color primaries : BT.709
Transfer characteristics : BT.709
Matrix coefficients : BT.709

Audio
ID : 2
Format : DTS
Format/Info : Digital Theater Systems
Format profile : MA / Core
Mode : 16
Format settings, Endianness : Big
Codec ID : A_DTS
Duration : 43 min 59 s
Bit rate mode : Variable / Constant
Bit rate : 3 711 kb/s / 1 509 kb/s
Channel(s) : 6 channels
Channel positions : Front: L C R, Side: L R, LFE
Sampling rate : 48.0 kHz
Frame rate : 93.750 FPS (512 SPF)
Bit depth : 24 bits
Compression mode : Lossless / Lossy
Stream size : 1.14 GiB (15%)
Title : DTS-HD MA 5.1
Language : English
Default : Yes
Forced : No

Text #1
ID : 3
Format : PGS
Codec ID : S_HDMV/PGS
Codec ID/Info : Picture based subtitle format used on BDs/HD-DVDs
Duration : 43 min 44 s
Bit rate : 45.5 kb/s
Count of elements : 1196
Stream size : 14.2 MiB (0%)
Title : English (SDH)
Language : English
Default : No
Forced : No

Text #2
ID : 4
Format : PGS
Codec ID : S_HDMV/PGS
Codec ID/Info : Picture based subtitle format used on BDs/HD-DVDs
Duration : 43 min 44 s
Bit rate : 32.8 kb/s
Count of elements : 1174
Stream size : 10.3 MiB (0%)
Title : French
Language : French
Default : No
Forced : No

Text #3
ID : 5
Format : PGS
Codec ID : S_HDMV/PGS
Codec ID/Info : Picture based subtitle format used on BDs/HD-DVDs
Duration : 43 min 49 s
Bit rate : 45.5 kb/s
Count of elements : 1184
Stream size : 14.3 MiB (0%)
Title : Portuguese (Brazilian)
Language : Portuguese
Default : No
Forced : No

Text #4
ID : 6
Format : PGS
Codec ID : S_HDMV/PGS
Codec ID/Info : Picture based subtitle format used on BDs/HD-DVDs
Duration : 43 min 44 s
Bit rate : 42.0 kb/s
Count of elements : 1166
Stream size : 13.2 MiB (0%)
Title : Danish
Language : Danish
Default : No
Forced : No

Text #5
ID : 7
Format : PGS
Codec ID : S_HDMV/PGS
Codec ID/Info : Picture based subtitle format used on BDs/HD-DVDs
Duration : 43 min 44 s
Bit rate : 41.2 kb/s
Count of elements : 1024
Stream size : 12.9 MiB (0%)
Title : Finnish
Language : Finnish
Default : No
Forced : No

Text #6
ID : 8
Format : PGS
Codec ID : S_HDMV/PGS
Codec ID/Info : Picture based subtitle format used on BDs/HD-DVDs
Duration : 43 min 44 s
Bit rate : 47.5 kb/s
Count of elements : 1184
Stream size : 14.9 MiB (0%)
Title : German
Language : German
Default : No
Forced : No

Text #7
ID : 9
Format : PGS
Codec ID : S_HDMV/PGS
Codec ID/Info : Picture based subtitle format used on BDs/HD-DVDs
Duration : 42 min 40 s
Bit rate : 28.4 kb/s
Count of elements : 1166
Stream size : 8.67 MiB (0%)
Title : Japanese
Language : Japanese
Default : No
Forced : No

Text #8
ID : 10
Format : PGS
Codec ID : S_HDMV/PGS
Codec ID/Info : Picture based subtitle format used on BDs/HD-DVDs
Duration : 43 min 49 s
Bit rate : 44.6 kb/s
Count of elements : 1196
Stream size : 14.0 MiB (0%)
Title : Spanish (Latin American)
Language : Spanish
Default : No
Forced : No

Text #9
ID : 11
Format : PGS
Codec ID : S_HDMV/PGS
Codec ID/Info : Picture based subtitle format used on BDs/HD-DVDs
Duration : 43 min 44 s
Bit rate : 40.7 kb/s
Count of elements : 1164
Stream size : 12.7 MiB (0%)
Title : Dutch
Language : Dutch
Default : No
Forced : No

Text #10
ID : 12
Format : PGS
Codec ID : S_HDMV/PGS
Codec ID/Info : Picture based subtitle format used on BDs/HD-DVDs
Duration : 43 min 44 s
Bit rate : 36.9 kb/s
Count of elements : 1172
Stream size : 11.5 MiB (0%)
Title : Norwegian
Language : Norwegian
Default : No
Forced : No

Text #11
ID : 13
Format : PGS
Codec ID : S_HDMV/PGS
Codec ID/Info : Picture based subtitle format used on BDs/HD-DVDs
Duration : 43 min 44 s
Bit rate : 34.9 kb/s
Count of elements : 1174
Stream size : 10.9 MiB (0%)
Title : Swedish
Language : Swedish
Default : No
Forced : No

Menu
00:00:00.000 : en:00:00:00.000
00:02:00.245 : en:00:02:00.245
00:05:39.798 : en:00:05:39.798
00:08:44.107 : en:00:08:44.107
00:12:30.500 : en:00:12:30.500
00:16:17.602 : en:00:16:17.602
00:19:30.169 : en:00:19:30.169
00:22:09.954 : en:00:22:09.954
00:25:18.350 : en:00:25:18.350
00:28:33.587 : en:00:28:33.587
00:30:16.398 : en:00:30:16.398
00:35:25.206 : en:00:35:25.206





24 S08E19


24 S08E19


24 S08E19


24 S08E19


24 S08E19

All episodes