Tags
Language
Tags

24 S08E20

Posted By: Tavaz
1080p (FullHD) / BluRay Remux IMDb
24 S08E20

24 S08E20
BluRay Remux | MKV | 1920x1080 | English | H264 @ 20716 kbps | DTS | 45 min 35 s | 7.92 GiB
Subtitles: Swedish, Portuguese, Dutch, Finnish, Danish, German, Spanish, Japanese, French, Norwegian, English
Genre: Drama

24 is an American television series produced for the Fox network and syndicated worldwide, starring Kiefer Sutherland as Counter Terrorist Unit agent Jack Bauer. Each 24-episode season covers 24 hours in the life of Bauer, using the real time method of narration.

523fcaac2da74c078a14fb0b81c48dca.mkv (7.9 GB)



General
Unique ID : 186445017883665057694315600883498707557 (0x8C4401194E76430FB0A57F56E3756A65)
Complete name : ./523fcaac2da74c078a14fb0b81c48dca.mkv
Format : Matroska
Format version : Version 4 / Version 2
File size : 7.92 GiB
Duration : 45 min 35 s
Overall bit rate mode : Variable
Overall bit rate : 24.9 Mb/s
Movie name : 24 S08E20
Encoded date : UTC 2017-08-09 22:09:45
Writing application : mkvmerge v13.0.0 ('The Juggler') 64bit
Writing library : libebml v1.3.4 + libmatroska v1.4.5

Video
ID : 1
Format : AVC
Format/Info : Advanced Video Codec
Format profile : High@L4.1
Format settings : CABAC / 4 Ref Frames
Format settings, CABAC : Yes
Format settings, RefFrames : 4 frames
Codec ID : V_MPEG4/ISO/AVC
Duration : 45 min 35 s
Bit rate mode : Variable
Bit rate : 20.7 Mb/s
Maximum bit rate : 34.0 Mb/s
Width : 1 920 pixels
Height : 1 080 pixels
Display aspect ratio : 16:9
Frame rate mode : Constant
Frame rate : 23.976 (24000/1001) FPS
Color space : YUV
Chroma subsampling : 4:2:0
Bit depth : 8 bits
Scan type : Progressive
Bits/(Pixel*Frame) : 0.417
Stream size : 6.60 GiB (83%)
Default : Yes
Forced : No
Color range : Limited
Color primaries : BT.709
Transfer characteristics : BT.709
Matrix coefficients : BT.709

Audio
ID : 2
Format : DTS
Format/Info : Digital Theater Systems
Format profile : MA / Core
Mode : 16
Format settings, Endianness : Big
Codec ID : A_DTS
Duration : 45 min 35 s
Bit rate mode : Variable / Constant
Bit rate : 3 756 kb/s / 1 509 kb/s
Channel(s) : 6 channels
Channel positions : Front: L C R, Side: L R, LFE
Sampling rate : 48.0 kHz
Frame rate : 93.750 FPS (512 SPF)
Bit depth : 24 bits
Compression mode : Lossless / Lossy
Stream size : 1.20 GiB (15%)
Title : DTS-HD MA 5.1
Language : English
Default : Yes
Forced : No

Text #1
ID : 3
Format : PGS
Codec ID : S_HDMV/PGS
Codec ID/Info : Picture based subtitle format used on BDs/HD-DVDs
Duration : 45 min 21 s
Bit rate : 41.1 kb/s
Count of elements : 1186
Stream size : 13.3 MiB (0%)
Title : English (SDH)
Language : English
Default : No
Forced : No

Text #2
ID : 4
Format : PGS
Codec ID : S_HDMV/PGS
Codec ID/Info : Picture based subtitle format used on BDs/HD-DVDs
Duration : 45 min 21 s
Bit rate : 30.7 kb/s
Count of elements : 1104
Stream size : 9.97 MiB (0%)
Title : French
Language : French
Default : No
Forced : No

Text #3
ID : 5
Format : PGS
Codec ID : S_HDMV/PGS
Codec ID/Info : Picture based subtitle format used on BDs/HD-DVDs
Duration : 45 min 26 s
Bit rate : 39.8 kb/s
Count of elements : 1120
Stream size : 12.9 MiB (0%)
Title : Portuguese (Brazilian)
Language : Portuguese
Default : No
Forced : No

Text #4
ID : 6
Format : PGS
Codec ID : S_HDMV/PGS
Codec ID/Info : Picture based subtitle format used on BDs/HD-DVDs
Duration : 45 min 21 s
Bit rate : 37.1 kb/s
Count of elements : 1120
Stream size : 12.0 MiB (0%)
Title : Danish
Language : Danish
Default : No
Forced : No

Text #5
ID : 7
Format : PGS
Codec ID : S_HDMV/PGS
Codec ID/Info : Picture based subtitle format used on BDs/HD-DVDs
Duration : 45 min 21 s
Bit rate : 38.3 kb/s
Count of elements : 1128
Stream size : 12.4 MiB (0%)
Title : Finnish
Language : Finnish
Default : No
Forced : No

Text #6
ID : 8
Format : PGS
Codec ID : S_HDMV/PGS
Codec ID/Info : Picture based subtitle format used on BDs/HD-DVDs
Duration : 45 min 21 s
Bit rate : 42.6 kb/s
Count of elements : 1134
Stream size : 13.8 MiB (0%)
Title : German
Language : German
Default : No
Forced : No

Text #7
ID : 9
Format : PGS
Codec ID : S_HDMV/PGS
Codec ID/Info : Picture based subtitle format used on BDs/HD-DVDs
Duration : 44 min 46 s
Bit rate : 24.9 kb/s
Count of elements : 1124
Stream size : 7.98 MiB (0%)
Title : Japanese
Language : Japanese
Default : No
Forced : No

Text #8
ID : 10
Format : PGS
Codec ID : S_HDMV/PGS
Codec ID/Info : Picture based subtitle format used on BDs/HD-DVDs
Duration : 45 min 26 s
Bit rate : 39.4 kb/s
Count of elements : 1144
Stream size : 12.8 MiB (0%)
Title : Spanish (Latin American)
Language : Spanish
Default : No
Forced : No

Text #9
ID : 11
Format : PGS
Codec ID : S_HDMV/PGS
Codec ID/Info : Picture based subtitle format used on BDs/HD-DVDs
Duration : 45 min 21 s
Bit rate : 35.6 kb/s
Count of elements : 1110
Stream size : 11.6 MiB (0%)
Title : Dutch
Language : Dutch
Default : No
Forced : No

Text #10
ID : 12
Format : PGS
Codec ID : S_HDMV/PGS
Codec ID/Info : Picture based subtitle format used on BDs/HD-DVDs
Duration : 45 min 21 s
Bit rate : 31.6 kb/s
Count of elements : 1128
Stream size : 10.3 MiB (0%)
Title : Norwegian
Language : Norwegian
Default : No
Forced : No

Text #11
ID : 13
Format : PGS
Codec ID : S_HDMV/PGS
Codec ID/Info : Picture based subtitle format used on BDs/HD-DVDs
Duration : 45 min 21 s
Bit rate : 31.8 kb/s
Count of elements : 1130
Stream size : 10.3 MiB (0%)
Title : Swedish
Language : Swedish
Default : No
Forced : No

Menu
00:00:00.000 : en:00:00:00.000
00:02:04.499 : en:00:02:04.499
00:04:49.539 : en:00:04:49.539
00:09:11.634 : en:00:09:11.634
00:13:03.366 : en:00:13:03.366
00:15:38.855 : en:00:15:38.855
00:19:49.438 : en:00:19:49.438
00:23:14.184 : en:00:23:14.184
00:27:42.828 : en:00:27:42.828
00:30:23.613 : en:00:30:23.613
00:34:28.900 : en:00:34:28.900
00:37:44.888 : en:00:37:44.888





24 S08E20


24 S08E20


24 S08E20


24 S08E20


24 S08E20

All episodes