Tags
Language
Tags

24 S08E23

Posted By: Tavaz
1080p (FullHD) / BluRay Remux IMDb
24 S08E23

24 S08E23
BluRay Remux | MKV | 1920x1080 | English | H264 @ 18930 kbps | DTS | 43 min 59 s | 7.08 GiB
Subtitles: Swedish, Portuguese, Dutch, Finnish, Danish, German, Spanish, Japanese, French, Norwegian, English
Genre: Drama

24 is an American television series produced for the Fox network and syndicated worldwide, starring Kiefer Sutherland as Counter Terrorist Unit agent Jack Bauer. Each 24-episode season covers 24 hours in the life of Bauer, using the real time method of narration.

1cf9c44960054131a442d32d911379f7.mkv (7.1 GB)



General
Unique ID : 207094198504325944905672673391276996217 (0x9BCCE44E5ECAA490B0082C01FC703679)
Complete name : ./1cf9c44960054131a442d32d911379f7.mkv
Format : Matroska
Format version : Version 4 / Version 2
File size : 7.08 GiB
Duration : 43 min 59 s
Overall bit rate mode : Variable
Overall bit rate : 23.0 Mb/s
Movie name : 24 S08E23
Encoded date : UTC 2017-08-09 22:18:18
Writing application : mkvmerge v13.0.0 ('The Juggler') 64bit
Writing library : libebml v1.3.4 + libmatroska v1.4.5

Video
ID : 1
Format : AVC
Format/Info : Advanced Video Codec
Format profile : High@L4.1
Format settings : CABAC / 4 Ref Frames
Format settings, CABAC : Yes
Format settings, RefFrames : 4 frames
Codec ID : V_MPEG4/ISO/AVC
Duration : 43 min 59 s
Bit rate mode : Variable
Bit rate : 18.9 Mb/s
Maximum bit rate : 34.0 Mb/s
Width : 1 920 pixels
Height : 1 080 pixels
Display aspect ratio : 16:9
Frame rate mode : Constant
Frame rate : 23.976 (24000/1001) FPS
Color space : YUV
Chroma subsampling : 4:2:0
Bit depth : 8 bits
Scan type : Progressive
Bits/(Pixel*Frame) : 0.381
Stream size : 5.82 GiB (82%)
Default : Yes
Forced : No
Color range : Limited
Color primaries : BT.709
Transfer characteristics : BT.709
Matrix coefficients : BT.709

Audio
ID : 2
Format : DTS
Format/Info : Digital Theater Systems
Format profile : MA / Core
Mode : 16
Format settings, Endianness : Big
Codec ID : A_DTS
Duration : 43 min 59 s
Bit rate mode : Variable / Constant
Bit rate : 3 712 kb/s / 1 509 kb/s
Channel(s) : 6 channels
Channel positions : Front: L C R, Side: L R, LFE
Sampling rate : 48.0 kHz
Frame rate : 93.750 FPS (512 SPF)
Bit depth : 24 bits
Compression mode : Lossless / Lossy
Stream size : 1.14 GiB (16%)
Title : DTS-HD MA 5.1
Language : English
Default : Yes
Forced : No

Text #1
ID : 3
Format : PGS
Codec ID : S_HDMV/PGS
Codec ID/Info : Picture based subtitle format used on BDs/HD-DVDs
Duration : 43 min 44 s
Bit rate : 41.3 kb/s
Count of elements : 1114
Stream size : 12.9 MiB (0%)
Title : English (SDH)
Language : English
Default : No
Forced : No

Text #2
ID : 4
Format : PGS
Codec ID : S_HDMV/PGS
Codec ID/Info : Picture based subtitle format used on BDs/HD-DVDs
Duration : 43 min 44 s
Bit rate : 29.3 kb/s
Count of elements : 1016
Stream size : 9.18 MiB (0%)
Title : French
Language : French
Default : No
Forced : No

Text #3
ID : 5
Format : PGS
Codec ID : S_HDMV/PGS
Codec ID/Info : Picture based subtitle format used on BDs/HD-DVDs
Duration : 43 min 49 s
Bit rate : 38.1 kb/s
Count of elements : 1084
Stream size : 11.9 MiB (0%)
Title : Portuguese (Brazilian)
Language : Portuguese
Default : No
Forced : No

Text #4
ID : 6
Format : PGS
Codec ID : S_HDMV/PGS
Codec ID/Info : Picture based subtitle format used on BDs/HD-DVDs
Duration : 43 min 44 s
Bit rate : 35.7 kb/s
Count of elements : 1080
Stream size : 11.2 MiB (0%)
Title : Danish
Language : Danish
Default : No
Forced : No

Text #5
ID : 7
Format : PGS
Codec ID : S_HDMV/PGS
Codec ID/Info : Picture based subtitle format used on BDs/HD-DVDs
Duration : 43 min 44 s
Bit rate : 37.3 kb/s
Count of elements : 974
Stream size : 11.7 MiB (0%)
Title : Finnish
Language : Finnish
Default : No
Forced : No

Text #6
ID : 8
Format : PGS
Codec ID : S_HDMV/PGS
Codec ID/Info : Picture based subtitle format used on BDs/HD-DVDs
Duration : 43 min 44 s
Bit rate : 43.7 kb/s
Count of elements : 1082
Stream size : 13.7 MiB (0%)
Title : German
Language : German
Default : No
Forced : No

Text #7
ID : 9
Format : PGS
Codec ID : S_HDMV/PGS
Codec ID/Info : Picture based subtitle format used on BDs/HD-DVDs
Duration : 42 min 53 s
Bit rate : 25.8 kb/s
Count of elements : 992
Stream size : 7.91 MiB (0%)
Title : Japanese
Language : Japanese
Default : No
Forced : No

Text #8
ID : 10
Format : PGS
Codec ID : S_HDMV/PGS
Codec ID/Info : Picture based subtitle format used on BDs/HD-DVDs
Duration : 43 min 49 s
Bit rate : 38.8 kb/s
Count of elements : 1094
Stream size : 12.2 MiB (0%)
Title : Spanish (Latin American)
Language : Spanish
Default : No
Forced : No

Text #9
ID : 11
Format : PGS
Codec ID : S_HDMV/PGS
Codec ID/Info : Picture based subtitle format used on BDs/HD-DVDs
Duration : 43 min 44 s
Bit rate : 37.3 kb/s
Count of elements : 1008
Stream size : 11.7 MiB (0%)
Title : Dutch
Language : Dutch
Default : No
Forced : No

Text #10
ID : 12
Format : PGS
Codec ID : S_HDMV/PGS
Codec ID/Info : Picture based subtitle format used on BDs/HD-DVDs
Duration : 43 min 44 s
Bit rate : 32.5 kb/s
Count of elements : 1076
Stream size : 10.2 MiB (0%)
Title : Norwegian
Language : Norwegian
Default : No
Forced : No

Text #11
ID : 13
Format : PGS
Codec ID : S_HDMV/PGS
Codec ID/Info : Picture based subtitle format used on BDs/HD-DVDs
Duration : 43 min 44 s
Bit rate : 31.5 kb/s
Count of elements : 1078
Stream size : 9.87 MiB (0%)
Title : Swedish
Language : Swedish
Default : No
Forced : No

Menu
00:00:00.000 : en:00:00:00.000
00:02:06.918 : en:00:02:06.918
00:06:09.536 : en:00:06:09.536
00:09:11.760 : en:00:09:11.760
00:13:47.827 : en:00:13:47.827
00:17:50.653 : en:00:17:50.653
00:22:30.975 : en:00:22:30.975
00:23:37.750 : en:00:23:37.750
00:29:18.674 : en:00:29:18.674
00:32:50.719 : en:00:32:50.719
00:37:34.085 : en:00:37:34.085
00:41:15.348 : en:00:41:15.348





24 S08E23


24 S08E23


24 S08E23


24 S08E23


24 S08E23

All episodes