Tags
Language
Tags

24 S08E24

Posted By: Tavaz
1080p (FullHD) / BluRay Remux IMDb
24 S08E24

24 S08E24
BluRay Remux | MKV | 1920x1080 | English | H264 @ 18933 kbps | DTS | 45 min 42 s | 7.35 GiB
Subtitles: Swedish, Portuguese, Dutch, Finnish, Danish, German, Spanish, Japanese, French, Norwegian, English
Genre: Drama

24 is an American television series produced for the Fox network and syndicated worldwide, starring Kiefer Sutherland as Counter Terrorist Unit agent Jack Bauer. Each 24-episode season covers 24 hours in the life of Bauer, using the real time method of narration.

1dd4128191444c3f8a87439e7c869ce3.mkv (7.4 GB)



General
Unique ID : 244268884730497386758444201507296385923 (0xB7C479D869C9BC9F86ED18D64B701B83)
Complete name : ./1dd4128191444c3f8a87439e7c869ce3.mkv
Format : Matroska
Format version : Version 4 / Version 2
File size : 7.35 GiB
Duration : 45 min 42 s
Overall bit rate mode : Variable
Overall bit rate : 23.0 Mb/s
Movie name : 24 S08E24
Encoded date : UTC 2017-08-09 22:20:51
Writing application : mkvmerge v13.0.0 ('The Juggler') 64bit
Writing library : libebml v1.3.4 + libmatroska v1.4.5

Video
ID : 1
Format : AVC
Format/Info : Advanced Video Codec
Format profile : High@L4.1
Format settings : CABAC / 4 Ref Frames
Format settings, CABAC : Yes
Format settings, RefFrames : 4 frames
Codec ID : V_MPEG4/ISO/AVC
Duration : 45 min 42 s
Bit rate mode : Variable
Bit rate : 18.9 Mb/s
Maximum bit rate : 34.0 Mb/s
Width : 1 920 pixels
Height : 1 080 pixels
Display aspect ratio : 16:9
Frame rate mode : Constant
Frame rate : 23.976 (24000/1001) FPS
Color space : YUV
Chroma subsampling : 4:2:0
Bit depth : 8 bits
Scan type : Progressive
Bits/(Pixel*Frame) : 0.381
Stream size : 6.05 GiB (82%)
Default : Yes
Forced : No
Color range : Limited
Color primaries : BT.709
Transfer characteristics : BT.709
Matrix coefficients : BT.709

Audio
ID : 2
Format : DTS
Format/Info : Digital Theater Systems
Format profile : MA / Core
Mode : 16
Format settings, Endianness : Big
Codec ID : A_DTS
Duration : 45 min 42 s
Bit rate mode : Variable / Constant
Bit rate : 3 698 kb/s / 1 509 kb/s
Channel(s) : 6 channels
Channel positions : Front: L C R, Side: L R, LFE
Sampling rate : 48.0 kHz
Frame rate : 93.750 FPS (512 SPF)
Bit depth : 24 bits
Compression mode : Lossless / Lossy
Stream size : 1.18 GiB (16%)
Title : DTS-HD MA 5.1
Language : English
Default : Yes
Forced : No

Text #1
ID : 3
Format : PGS
Codec ID : S_HDMV/PGS
Codec ID/Info : Picture based subtitle format used on BDs/HD-DVDs
Duration : 45 min 27 s
Bit rate : 41.3 kb/s
Count of elements : 1150
Stream size : 13.4 MiB (0%)
Title : English (SDH)
Language : English
Default : No
Forced : No

Text #2
ID : 4
Format : PGS
Codec ID : S_HDMV/PGS
Codec ID/Info : Picture based subtitle format used on BDs/HD-DVDs
Duration : 45 min 27 s
Bit rate : 31.8 kb/s
Count of elements : 1112
Stream size : 10.3 MiB (0%)
Title : French
Language : French
Default : No
Forced : No

Text #3
ID : 5
Format : PGS
Codec ID : S_HDMV/PGS
Codec ID/Info : Picture based subtitle format used on BDs/HD-DVDs
Duration : 45 min 31 s
Bit rate : 37.8 kb/s
Count of elements : 1082
Stream size : 12.3 MiB (0%)
Title : Portuguese (Brazilian)
Language : Portuguese
Default : No
Forced : No

Text #4
ID : 6
Format : PGS
Codec ID : S_HDMV/PGS
Codec ID/Info : Picture based subtitle format used on BDs/HD-DVDs
Duration : 45 min 27 s
Bit rate : 35.0 kb/s
Count of elements : 1078
Stream size : 11.4 MiB (0%)
Title : Danish
Language : Danish
Default : No
Forced : No

Text #5
ID : 7
Format : PGS
Codec ID : S_HDMV/PGS
Codec ID/Info : Picture based subtitle format used on BDs/HD-DVDs
Duration : 45 min 27 s
Bit rate : 36.1 kb/s
Count of elements : 1082
Stream size : 11.7 MiB (0%)
Title : Finnish
Language : Finnish
Default : No
Forced : No

Text #6
ID : 8
Format : PGS
Codec ID : S_HDMV/PGS
Codec ID/Info : Picture based subtitle format used on BDs/HD-DVDs
Duration : 45 min 27 s
Bit rate : 40.2 kb/s
Count of elements : 1086
Stream size : 13.1 MiB (0%)
Title : German
Language : German
Default : No
Forced : No

Text #7
ID : 9
Format : PGS
Codec ID : S_HDMV/PGS
Codec ID/Info : Picture based subtitle format used on BDs/HD-DVDs
Duration : 44 min 36 s
Bit rate : 25.7 kb/s
Count of elements : 1126
Stream size : 8.21 MiB (0%)
Title : Japanese
Language : Japanese
Default : No
Forced : No

Text #8
ID : 10
Format : PGS
Codec ID : S_HDMV/PGS
Codec ID/Info : Picture based subtitle format used on BDs/HD-DVDs
Duration : 45 min 31 s
Bit rate : 38.9 kb/s
Count of elements : 1094
Stream size : 12.7 MiB (0%)
Title : Spanish (Latin American)
Language : Spanish
Default : No
Forced : No

Text #9
ID : 11
Format : PGS
Codec ID : S_HDMV/PGS
Codec ID/Info : Picture based subtitle format used on BDs/HD-DVDs
Duration : 45 min 27 s
Bit rate : 37.3 kb/s
Count of elements : 1042
Stream size : 12.1 MiB (0%)
Title : Dutch
Language : Dutch
Default : No
Forced : No

Text #10
ID : 12
Format : PGS
Codec ID : S_HDMV/PGS
Codec ID/Info : Picture based subtitle format used on BDs/HD-DVDs
Duration : 45 min 27 s
Bit rate : 31.6 kb/s
Count of elements : 1080
Stream size : 10.3 MiB (0%)
Title : Norwegian
Language : Norwegian
Default : No
Forced : No

Text #11
ID : 13
Format : PGS
Codec ID : S_HDMV/PGS
Codec ID/Info : Picture based subtitle format used on BDs/HD-DVDs
Duration : 45 min 27 s
Bit rate : 32.1 kb/s
Count of elements : 1082
Stream size : 10.4 MiB (0%)
Title : Swedish
Language : Swedish
Default : No
Forced : No

Menu
00:00:00.000 : en:00:00:00.000
00:01:57.117 : en:00:01:57.117
00:06:49.117 : en:00:06:49.117
00:11:15.967 : en:00:11:15.967
00:14:01.466 : en:00:14:01.466
00:19:41.013 : en:00:19:41.013
00:24:12.576 : en:00:24:12.576
00:27:55.632 : en:00:27:55.632
00:33:03.356 : en:00:33:03.356
00:35:39.679 : en:00:35:39.679
00:37:35.211 : en:00:37:35.211
00:42:50.359 : en:00:42:50.359





24 S08E24


24 S08E24


24 S08E24


24 S08E24


24 S08E24

All episodes