Tags
Language
Tags

24 S09E01

Posted By: Tavaz
1080p (FullHD) / BluRay Remux IMDb
24 S09E01

24 S09E01
BluRay Remux | MKV | 1920x1080 | English | H264 @ 26156 kbps | DTS | 44 min 22 s | 9.28 GiB
Subtitles: Italian, Dutch, French, English
Genre: Drama

24 is an American television series produced for the Fox network and syndicated worldwide, starring Kiefer Sutherland as Counter Terrorist Unit agent Jack Bauer. Each 24-episode season covers 24 hours in the life of Bauer, using the real time method of narration.

ae2f7e9f82ef4bc7b29e460d1b8cb4f9.mkv (9.3 GB)



General
Unique ID : 238370806904295169739527043708852106507 (0xB3548C28345E5B66889F11736B87F50B)
Complete name : ./ae2f7e9f82ef4bc7b29e460d1b8cb4f9.mkv
Format : Matroska
Format version : Version 4 / Version 2
File size : 9.28 GiB
Duration : 44 min 22 s
Overall bit rate mode : Variable
Overall bit rate : 29.9 Mb/s
Movie name : 24 S09E01
Encoded date : UTC 2017-08-10 17:58:21
Writing application : mkvmerge v13.0.0 ('The Juggler') 64bit
Writing library : libebml v1.3.4 + libmatroska v1.4.5

Video
ID : 1
Format : AVC
Format/Info : Advanced Video Codec
Format profile : High@L4.1
Format settings : CABAC / 4 Ref Frames
Format settings, CABAC : Yes
Format settings, RefFrames : 4 frames
Codec ID : V_MPEG4/ISO/AVC
Duration : 44 min 22 s
Bit rate mode : Variable
Bit rate : 26.2 Mb/s
Maximum bit rate : 36.0 Mb/s
Width : 1 920 pixels
Height : 1 080 pixels
Display aspect ratio : 16:9
Frame rate mode : Constant
Frame rate : 23.976 (24000/1001) FPS
Color space : YUV
Chroma subsampling : 4:2:0
Bit depth : 8 bits
Scan type : Progressive
Bits/(Pixel*Frame) : 0.526
Stream size : 8.11 GiB (87%)
Default : Yes
Forced : No

Audio
ID : 2
Format : DTS
Format/Info : Digital Theater Systems
Format profile : MA / Core
Mode : 16
Format settings, Endianness : Big
Codec ID : A_DTS
Duration : 44 min 22 s
Bit rate mode : Variable / Constant
Bit rate : 3 651 kb/s / 1 509 kb/s
Channel(s) : 6 channels
Channel positions : Front: L C R, Side: L R, LFE
Sampling rate : 48.0 kHz
Frame rate : 93.750 FPS (512 SPF)
Bit depth : 24 bits
Compression mode : Lossless / Lossy
Stream size : 1.13 GiB (12%)
Title : DTS-HD MA 5.1
Language : English
Default : Yes
Forced : No

Text #1
ID : 3
Format : PGS
Codec ID : S_HDMV/PGS
Codec ID/Info : Picture based subtitle format used on BDs/HD-DVDs
Duration : 42 min 45 s
Bit rate : 36.8 kb/s
Count of elements : 1004
Stream size : 11.3 MiB (0%)
Title : English
Language : English
Default : No
Forced : No

Text #2
ID : 4
Format : PGS
Codec ID : S_HDMV/PGS
Codec ID/Info : Picture based subtitle format used on BDs/HD-DVDs
Duration : 44 min 15 s
Bit rate : 33.6 kb/s
Count of elements : 1038
Stream size : 10.6 MiB (0%)
Title : French
Language : French
Default : No
Forced : No

Text #3
ID : 5
Format : PGS
Codec ID : S_HDMV/PGS
Codec ID/Info : Picture based subtitle format used on BDs/HD-DVDs
Duration : 44 min 15 s
Bit rate : 31.8 kb/s
Count of elements : 1038
Stream size : 10.1 MiB (0%)
Title : Italian
Language : Italian
Default : No
Forced : No

Text #4
ID : 6
Format : PGS
Codec ID : S_HDMV/PGS
Codec ID/Info : Picture based subtitle format used on BDs/HD-DVDs
Duration : 44 min 15 s
Bit rate : 33.4 kb/s
Count of elements : 1034
Stream size : 10.6 MiB (0%)
Title : Dutch
Language : Dutch
Default : No
Forced : No

Menu
00:00:00.000 : en:00:00:00.000
00:06:41.109 : en:00:06:41.109
00:11:38.239 : en:00:11:38.239
00:15:17.291 : en:00:15:17.291
00:17:35.554 : en:00:17:35.554
00:20:22.596 : en:00:20:22.596
00:24:54.702 : en:00:24:54.702
00:28:46.516 : en:00:28:46.516
00:32:48.758 : en:00:32:48.758
00:36:54.295 : en:00:36:54.295
00:41:36.661 : en:00:41:36.661
00:43:44.997 : en:00:43:44.997





24 S09E01


24 S09E01


24 S09E01


24 S09E01


24 S09E01

All episodes