Tags
Language
Tags

24 S09E03

Posted By: Tavaz
1080p (FullHD) / BluRay Remux IMDb
24 S09E03

24 S09E03
BluRay Remux | MKV | 1920x1080 | English | H264 @ 26138 kbps | DTS | 42 min 36 s | 8.89 GiB
Subtitles: Italian, Dutch, French, English
Genre: Drama

24 is an American television series produced for the Fox network and syndicated worldwide, starring Kiefer Sutherland as Counter Terrorist Unit agent Jack Bauer. Each 24-episode season covers 24 hours in the life of Bauer, using the real time method of narration.

e8e0a61613884fe4b41f22ea69386481.mkv (8.9 GB)



General
Unique ID : 219066083738673257700659994319563883861 (0xA4CE97D1F0E499ADA841E6B840718555)
Complete name : ./e8e0a61613884fe4b41f22ea69386481.mkv
Format : Matroska
Format version : Version 4 / Version 2
File size : 8.89 GiB
Duration : 42 min 36 s
Overall bit rate mode : Variable
Overall bit rate : 29.9 Mb/s
Movie name : 24 S09E03
Encoded date : UTC 2017-08-10 18:14:50
Writing application : mkvmerge v13.0.0 ('The Juggler') 64bit
Writing library : libebml v1.3.4 + libmatroska v1.4.5

Video
ID : 1
Format : AVC
Format/Info : Advanced Video Codec
Format profile : High@L4.1
Format settings : CABAC / 4 Ref Frames
Format settings, CABAC : Yes
Format settings, RefFrames : 4 frames
Codec ID : V_MPEG4/ISO/AVC
Duration : 42 min 36 s
Bit rate mode : Variable
Bit rate : 26.1 Mb/s
Maximum bit rate : 36.0 Mb/s
Width : 1 920 pixels
Height : 1 080 pixels
Display aspect ratio : 16:9
Frame rate mode : Constant
Frame rate : 23.976 (24000/1001) FPS
Color space : YUV
Chroma subsampling : 4:2:0
Bit depth : 8 bits
Scan type : Progressive
Bits/(Pixel*Frame) : 0.526
Stream size : 7.78 GiB (87%)
Default : Yes
Forced : No

Audio
ID : 2
Format : DTS
Format/Info : Digital Theater Systems
Format profile : MA / Core
Mode : 16
Format settings, Endianness : Big
Codec ID : A_DTS
Duration : 42 min 36 s
Bit rate mode : Variable / Constant
Bit rate : 3 579 kb/s / 1 509 kb/s
Channel(s) : 6 channels
Channel positions : Front: L C R, Side: L R, LFE
Sampling rate : 48.0 kHz
Frame rate : 93.750 FPS (512 SPF)
Bit depth : 24 bits
Compression mode : Lossless / Lossy
Stream size : 1.07 GiB (12%)
Title : DTS-HD MA 5.1
Language : English
Default : Yes
Forced : No

Text #1
ID : 3
Format : PGS
Codec ID : S_HDMV/PGS
Codec ID/Info : Picture based subtitle format used on BDs/HD-DVDs
Duration : 41 min 36 s
Bit rate : 41.9 kb/s
Count of elements : 1212
Stream size : 12.5 MiB (0%)
Title : English
Language : English
Default : No
Forced : No

Text #2
ID : 4
Format : PGS
Codec ID : S_HDMV/PGS
Codec ID/Info : Picture based subtitle format used on BDs/HD-DVDs
Duration : 42 min 20 s
Bit rate : 38.8 kb/s
Count of elements : 1238
Stream size : 11.7 MiB (0%)
Title : French
Language : French
Default : No
Forced : No

Text #3
ID : 5
Format : PGS
Codec ID : S_HDMV/PGS
Codec ID/Info : Picture based subtitle format used on BDs/HD-DVDs
Duration : 42 min 20 s
Bit rate : 38.8 kb/s
Count of elements : 1240
Stream size : 11.8 MiB (0%)
Title : Italian
Language : Italian
Default : No
Forced : No

Text #4
ID : 6
Format : PGS
Codec ID : S_HDMV/PGS
Codec ID/Info : Picture based subtitle format used on BDs/HD-DVDs
Duration : 42 min 20 s
Bit rate : 39.0 kb/s
Count of elements : 1234
Stream size : 11.8 MiB (0%)
Title : Dutch
Language : Dutch
Default : No
Forced : No

Menu
00:00:00.000 : en:00:00:00.000
00:02:25.896 : en:00:02:25.896
00:07:16.436 : en:00:07:16.436
00:11:26.895 : en:00:11:26.895
00:14:08.181 : en:00:14:08.181
00:17:52.405 : en:00:17:52.405
00:21:44.261 : en:00:21:44.261
00:25:59.641 : en:00:25:59.641
00:29:41.697 : en:00:29:41.697
00:33:21.041 : en:00:33:21.041
00:38:58.545 : en:00:38:58.545
00:41:58.349 : en:00:41:58.349





24 S09E03


24 S09E03


24 S09E03


24 S09E03


24 S09E03

All episodes