Tags
Language
Tags

24 S09E04

Posted By: Tavaz
1080p (FullHD) / BluRay Remux IMDb
24 S09E04

24 S09E04
BluRay Remux | MKV | 1920x1080 | English | H264 @ 26168 kbps | DTS | 43 min 48 s | 9.25 GiB
Subtitles: Italian, Dutch, French, English
Genre: Drama

24 is an American television series produced for the Fox network and syndicated worldwide, starring Kiefer Sutherland as Counter Terrorist Unit agent Jack Bauer. Each 24-episode season covers 24 hours in the life of Bauer, using the real time method of narration.

da5227a4cd8a4c66acd40bd3baeecbf3.mkv (9.3 GB)



General
Unique ID : 220526729485089608091940881011644615252 (0xA5E7E737271040588113C8758888CA54)
Complete name : ./da5227a4cd8a4c66acd40bd3baeecbf3.mkv
Format : Matroska
Format version : Version 4 / Version 2
File size : 9.25 GiB
Duration : 43 min 48 s
Overall bit rate mode : Variable
Overall bit rate : 30.2 Mb/s
Movie name : 24 S09E04
Encoded date : UTC 2017-08-10 18:22:02
Writing application : mkvmerge v13.0.0 ('The Juggler') 64bit
Writing library : libebml v1.3.4 + libmatroska v1.4.5

Video
ID : 1
Format : AVC
Format/Info : Advanced Video Codec
Format profile : High@L4.1
Format settings : CABAC / 4 Ref Frames
Format settings, CABAC : Yes
Format settings, RefFrames : 4 frames
Codec ID : V_MPEG4/ISO/AVC
Duration : 43 min 48 s
Bit rate mode : Variable
Bit rate : 26.2 Mb/s
Maximum bit rate : 36.0 Mb/s
Width : 1 920 pixels
Height : 1 080 pixels
Display aspect ratio : 16:9
Frame rate mode : Constant
Frame rate : 23.976 (24000/1001) FPS
Color space : YUV
Chroma subsampling : 4:2:0
Bit depth : 8 bits
Scan type : Progressive
Bits/(Pixel*Frame) : 0.526
Stream size : 8.01 GiB (87%)
Default : Yes
Forced : No

Audio
ID : 2
Format : DTS
Format/Info : Digital Theater Systems
Format profile : MA / Core
Mode : 16
Format settings, Endianness : Big
Codec ID : A_DTS
Duration : 43 min 48 s
Bit rate mode : Variable / Constant
Bit rate : 3 840 kb/s / 1 509 kb/s
Channel(s) : 6 channels
Channel positions : Front: L C R, Side: L R, LFE
Sampling rate : 48.0 kHz
Frame rate : 93.750 FPS (512 SPF)
Bit depth : 24 bits
Compression mode : Lossless / Lossy
Stream size : 1.18 GiB (13%)
Title : DTS-HD MA 5.1
Language : English
Default : Yes
Forced : No

Text #1
ID : 3
Format : PGS
Codec ID : S_HDMV/PGS
Codec ID/Info : Picture based subtitle format used on BDs/HD-DVDs
Duration : 42 min 37 s
Bit rate : 56.5 kb/s
Count of elements : 1534
Stream size : 17.2 MiB (0%)
Title : English
Language : English
Default : No
Forced : No

Text #2
ID : 4
Format : PGS
Codec ID : S_HDMV/PGS
Codec ID/Info : Picture based subtitle format used on BDs/HD-DVDs
Duration : 43 min 33 s
Bit rate : 49.5 kb/s
Count of elements : 1546
Stream size : 15.4 MiB (0%)
Title : French
Language : French
Default : No
Forced : No

Text #3
ID : 5
Format : PGS
Codec ID : S_HDMV/PGS
Codec ID/Info : Picture based subtitle format used on BDs/HD-DVDs
Duration : 43 min 33 s
Bit rate : 51.5 kb/s
Count of elements : 1552
Stream size : 16.0 MiB (0%)
Title : Italian
Language : Italian
Default : No
Forced : No

Text #4
ID : 6
Format : PGS
Codec ID : S_HDMV/PGS
Codec ID/Info : Picture based subtitle format used on BDs/HD-DVDs
Duration : 43 min 33 s
Bit rate : 50.5 kb/s
Count of elements : 1546
Stream size : 15.7 MiB (0%)
Title : Dutch
Language : Dutch
Default : No
Forced : No

Menu
00:00:00.000 : en:00:00:00.000
00:02:16.345 : en:00:02:16.345
00:05:18.276 : en:00:05:18.276
00:09:13.303 : en:00:09:13.303
00:12:22.158 : en:00:12:22.158
00:15:16.124 : en:00:15:16.124
00:18:51.714 : en:00:18:51.714
00:24:31.637 : en:00:24:31.637
00:29:25.514 : en:00:29:25.514
00:34:15.929 : en:00:34:15.929
00:39:52.265 : en:00:39:52.265
00:43:11.005 : en:00:43:11.005





24 S09E04


24 S09E04


24 S09E04


24 S09E04


24 S09E04

All episodes