Tags
Language
Tags

24 S09E05

Posted By: Tavaz
1080p (FullHD) / BluRay Remux IMDb
24 S09E05

24 S09E05
BluRay Remux | MKV | 1920x1080 | English | H264 @ 27195 kbps | DTS | 43 min 27 s | 9.37 GiB
Subtitles: Italian, Dutch, French, English
Genre: Drama

24 is an American television series produced for the Fox network and syndicated worldwide, starring Kiefer Sutherland as Counter Terrorist Unit agent Jack Bauer. Each 24-episode season covers 24 hours in the life of Bauer, using the real time method of narration.

747d7e7a08434c91a4c757da9f516451.mkv (9.4 GB)



General
Unique ID : 181794368385344200902463379239442667555 (0x88C4526022FFC8E7BC77CF858A9D5823)
Complete name : ./747d7e7a08434c91a4c757da9f516451.mkv
Format : Matroska
Format version : Version 4 / Version 2
File size : 9.37 GiB
Duration : 43 min 27 s
Overall bit rate mode : Variable
Overall bit rate : 30.9 Mb/s
Movie name : 24 S09E05
Encoded date : UTC 2017-08-10 18:27:57
Writing application : mkvmerge v13.0.0 ('The Juggler') 64bit
Writing library : libebml v1.3.4 + libmatroska v1.4.5

Video
ID : 1
Format : AVC
Format/Info : Advanced Video Codec
Format profile : High@L4.1
Format settings : CABAC / 4 Ref Frames
Format settings, CABAC : Yes
Format settings, RefFrames : 4 frames
Codec ID : V_MPEG4/ISO/AVC
Duration : 43 min 27 s
Bit rate mode : Variable
Bit rate : 27.2 Mb/s
Maximum bit rate : 36.0 Mb/s
Width : 1 920 pixels
Height : 1 080 pixels
Display aspect ratio : 16:9
Frame rate mode : Constant
Frame rate : 23.976 (24000/1001) FPS
Color space : YUV
Chroma subsampling : 4:2:0
Bit depth : 8 bits
Scan type : Progressive
Bits/(Pixel*Frame) : 0.547
Stream size : 8.25 GiB (88%)
Default : Yes
Forced : No

Audio
ID : 2
Format : DTS
Format/Info : Digital Theater Systems
Format profile : MA / Core
Mode : 16
Format settings, Endianness : Big
Codec ID : A_DTS
Duration : 43 min 27 s
Bit rate mode : Variable / Constant
Bit rate : 3 489 kb/s / 1 509 kb/s
Channel(s) : 6 channels
Channel positions : Front: L C R, Side: L R, LFE
Sampling rate : 48.0 kHz
Frame rate : 93.750 FPS (512 SPF)
Bit depth : 24 bits
Compression mode : Lossless / Lossy
Stream size : 1.06 GiB (11%)
Title : DTS-HD MA 5.1
Language : English
Default : Yes
Forced : No

Text #1
ID : 3
Format : PGS
Codec ID : S_HDMV/PGS
Codec ID/Info : Picture based subtitle format used on BDs/HD-DVDs
Duration : 42 min 19 s
Bit rate : 48.2 kb/s
Count of elements : 1340
Stream size : 14.6 MiB (0%)
Title : English
Language : English
Default : No
Forced : No

Text #2
ID : 4
Format : PGS
Codec ID : S_HDMV/PGS
Codec ID/Info : Picture based subtitle format used on BDs/HD-DVDs
Duration : 43 min 11 s
Bit rate : 47.5 kb/s
Count of elements : 1352
Stream size : 14.7 MiB (0%)
Title : French
Language : French
Default : No
Forced : No

Text #3
ID : 5
Format : PGS
Codec ID : S_HDMV/PGS
Codec ID/Info : Picture based subtitle format used on BDs/HD-DVDs
Duration : 43 min 11 s
Bit rate : 45.2 kb/s
Count of elements : 1350
Stream size : 14.0 MiB (0%)
Title : Dutch
Language : Dutch
Default : No
Forced : No

Text #4
ID : 6
Format : PGS
Codec ID : S_HDMV/PGS
Codec ID/Info : Picture based subtitle format used on BDs/HD-DVDs
Duration : 43 min 11 s
Bit rate : 43.4 kb/s
Count of elements : 1354
Stream size : 13.4 MiB (0%)
Title : Italian
Language : Italian
Default : No
Forced : No

Menu
00:00:00.000 : en:00:00:00.000
00:02:07.627 : en:00:02:07.627
00:07:49.135 : en:00:07:49.135
00:13:30.643 : en:00:13:30.643
00:16:18.436 : en:00:16:18.436
00:19:47.019 : en:00:19:47.019
00:23:17.896 : en:00:23:17.896
00:26:12.946 : en:00:26:12.946
00:29:00.906 : en:00:29:00.906
00:33:00.270 : en:00:33:00.270
00:36:08.625 : en:00:36:08.625
00:42:49.567 : en:00:42:49.567





24 S09E05


24 S09E05


24 S09E05


24 S09E05


24 S09E05

All episodes