Tags
Language
Tags

24 S09E06

Posted By: Tavaz
1080p (FullHD) / BluRay Remux IMDb
24 S09E06

24 S09E06
BluRay Remux | MKV | 1920x1080 | English | H264 @ 27037 kbps | DTS | 43 min 41 s | 9.48 GiB
Subtitles: Italian, Dutch, French, English
Genre: Drama

24 is an American television series produced for the Fox network and syndicated worldwide, starring Kiefer Sutherland as Counter Terrorist Unit agent Jack Bauer. Each 24-episode season covers 24 hours in the life of Bauer, using the real time method of narration.

4b90b2a48679408086c810f96b3e8fc7.mkv (9.5 GB)



General
Unique ID : 242119018051962898586668232984016870399 (0xB6266D3C06F03C60A459DC0799AE5BFF)
Complete name : ./4b90b2a48679408086c810f96b3e8fc7.mkv
Format : Matroska
Format version : Version 4 / Version 2
File size : 9.48 GiB
Duration : 43 min 41 s
Overall bit rate mode : Variable
Overall bit rate : 31.0 Mb/s
Movie name : 24 S09E06
Encoded date : UTC 2017-08-10 18:31:25
Writing application : mkvmerge v13.0.0 ('The Juggler') 64bit
Writing library : libebml v1.3.4 + libmatroska v1.4.5

Video
ID : 1
Format : AVC
Format/Info : Advanced Video Codec
Format profile : High@L4.1
Format settings : CABAC / 4 Ref Frames
Format settings, CABAC : Yes
Format settings, RefFrames : 4 frames
Codec ID : V_MPEG4/ISO/AVC
Duration : 43 min 41 s
Bit rate mode : Variable
Bit rate : 27.0 Mb/s
Maximum bit rate : 36.0 Mb/s
Width : 1 920 pixels
Height : 1 080 pixels
Display aspect ratio : 16:9
Frame rate mode : Constant
Frame rate : 23.976 (24000/1001) FPS
Color space : YUV
Chroma subsampling : 4:2:0
Bit depth : 8 bits
Scan type : Progressive
Bits/(Pixel*Frame) : 0.544
Stream size : 8.25 GiB (87%)
Default : Yes
Forced : No

Audio
ID : 2
Format : DTS
Format/Info : Digital Theater Systems
Format profile : MA / Core
Mode : 16
Format settings, Endianness : Big
Codec ID : A_DTS
Duration : 43 min 41 s
Bit rate mode : Variable / Constant
Bit rate : 3 840 kb/s / 1 509 kb/s
Channel(s) : 6 channels
Channel positions : Front: L C R, Side: L R, LFE
Sampling rate : 48.0 kHz
Frame rate : 93.750 FPS (512 SPF)
Bit depth : 24 bits
Compression mode : Lossless / Lossy
Stream size : 1.17 GiB (12%)
Title : DTS-HD MA 5.1
Language : English
Default : Yes
Forced : No

Text #1
ID : 3
Format : PGS
Codec ID : S_HDMV/PGS
Codec ID/Info : Picture based subtitle format used on BDs/HD-DVDs
Duration : 42 min 34 s
Bit rate : 45.4 kb/s
Count of elements : 1224
Stream size : 13.8 MiB (0%)
Title : English
Language : English
Default : No
Forced : No

Text #2
ID : 4
Format : PGS
Codec ID : S_HDMV/PGS
Codec ID/Info : Picture based subtitle format used on BDs/HD-DVDs
Duration : 43 min 27 s
Bit rate : 41.2 kb/s
Count of elements : 1248
Stream size : 12.8 MiB (0%)
Title : French
Language : French
Default : No
Forced : No

Text #3
ID : 5
Format : PGS
Codec ID : S_HDMV/PGS
Codec ID/Info : Picture based subtitle format used on BDs/HD-DVDs
Duration : 43 min 27 s
Bit rate : 42.1 kb/s
Count of elements : 1244
Stream size : 13.1 MiB (0%)
Title : Dutch
Language : Dutch
Default : No
Forced : No

Text #4
ID : 6
Format : PGS
Codec ID : S_HDMV/PGS
Codec ID/Info : Picture based subtitle format used on BDs/HD-DVDs
Duration : 43 min 27 s
Bit rate : 41.6 kb/s
Count of elements : 1248
Stream size : 12.9 MiB (0%)
Title : Italian
Language : Italian
Default : No
Forced : No

Menu
00:00:00.000 : en:00:00:00.000
00:02:25.354 : en:00:02:25.354
00:07:38.416 : en:00:07:38.416
00:10:13.613 : en:00:10:13.613
00:14:23.571 : en:00:14:23.571
00:18:55.176 : en:00:18:55.176
00:21:05.264 : en:00:21:05.264
00:23:40.336 : en:00:23:40.336
00:26:59.117 : en:00:26:59.117
00:33:59.537 : en:00:33:59.537
00:38:46.991 : en:00:38:46.991
00:43:04.165 : en:00:43:04.165





24 S09E06


24 S09E06


24 S09E06


24 S09E06


24 S09E06

All episodes