Tags
Language
Tags

24 S09E07

Posted By: Tavaz
1080p (FullHD) / BluRay Remux IMDb
24 S09E07

24 S09E07
BluRay Remux | MKV | 1920x1080 | English | H264 @ 27086 kbps | DTS | 42 min 57 s | 9.24 GiB
Subtitles: Italian, Dutch, French, English
Genre: Drama

24 is an American television series produced for the Fox network and syndicated worldwide, starring Kiefer Sutherland as Counter Terrorist Unit agent Jack Bauer. Each 24-episode season covers 24 hours in the life of Bauer, using the real time method of narration.

9f401cdb082c4c9ca4cf2959bd472c93.mkv (9.2 GB)



General
Unique ID : 230036510285655439088287555835561595190 (0xAD0F6B9BCE21513D85662CD54D7D5136)
Complete name : ./9f401cdb082c4c9ca4cf2959bd472c93.mkv
Format : Matroska
Format version : Version 4 / Version 2
File size : 9.24 GiB
Duration : 42 min 57 s
Overall bit rate mode : Variable
Overall bit rate : 30.8 Mb/s
Movie name : 24 S09E07
Encoded date : UTC 2017-08-10 18:34:51
Writing application : mkvmerge v13.0.0 ('The Juggler') 64bit
Writing library : libebml v1.3.4 + libmatroska v1.4.5

Video
ID : 1
Format : AVC
Format/Info : Advanced Video Codec
Format profile : High@L4.1
Format settings : CABAC / 4 Ref Frames
Format settings, CABAC : Yes
Format settings, RefFrames : 4 frames
Codec ID : V_MPEG4/ISO/AVC
Duration : 42 min 57 s
Bit rate mode : Variable
Bit rate : 27.1 Mb/s
Maximum bit rate : 36.0 Mb/s
Width : 1 920 pixels
Height : 1 080 pixels
Display aspect ratio : 16:9
Frame rate mode : Constant
Frame rate : 23.976 (24000/1001) FPS
Color space : YUV
Chroma subsampling : 4:2:0
Bit depth : 8 bits
Scan type : Progressive
Bits/(Pixel*Frame) : 0.545
Stream size : 8.13 GiB (88%)
Default : Yes
Forced : No

Audio
ID : 2
Format : DTS
Format/Info : Digital Theater Systems
Format profile : MA / Core
Mode : 16
Format settings, Endianness : Big
Codec ID : A_DTS
Duration : 42 min 57 s
Bit rate mode : Variable / Constant
Bit rate : 3 552 kb/s / 1 509 kb/s
Channel(s) : 6 channels
Channel positions : Front: L C R, Side: L R, LFE
Sampling rate : 48.0 kHz
Frame rate : 93.750 FPS (512 SPF)
Bit depth : 24 bits
Compression mode : Lossless / Lossy
Stream size : 1.07 GiB (12%)
Title : DTS-HD MA 5.1
Language : English
Default : Yes
Forced : No

Text #1
ID : 3
Format : PGS
Codec ID : S_HDMV/PGS
Codec ID/Info : Picture based subtitle format used on BDs/HD-DVDs
Duration : 41 min 52 s
Bit rate : 43.1 kb/s
Count of elements : 1140
Stream size : 12.9 MiB (0%)
Title : English
Language : English
Default : No
Forced : No

Text #2
ID : 4
Format : PGS
Codec ID : S_HDMV/PGS
Codec ID/Info : Picture based subtitle format used on BDs/HD-DVDs
Duration : 42 min 42 s
Bit rate : 38.4 kb/s
Count of elements : 1176
Stream size : 11.7 MiB (0%)
Title : French
Language : French
Default : No
Forced : No

Text #3
ID : 5
Format : PGS
Codec ID : S_HDMV/PGS
Codec ID/Info : Picture based subtitle format used on BDs/HD-DVDs
Duration : 42 min 42 s
Bit rate : 40.2 kb/s
Count of elements : 1174
Stream size : 12.3 MiB (0%)
Title : Dutch
Language : Dutch
Default : No
Forced : No

Text #4
ID : 6
Format : PGS
Codec ID : S_HDMV/PGS
Codec ID/Info : Picture based subtitle format used on BDs/HD-DVDs
Duration : 42 min 42 s
Bit rate : 40.9 kb/s
Count of elements : 1178
Stream size : 12.5 MiB (0%)
Title : Italian
Language : Italian
Default : No
Forced : No

Menu
00:00:00.000 : en:00:00:00.000
00:02:16.053 : en:00:02:16.053
00:05:19.277 : en:00:05:19.277
00:10:46.437 : en:00:10:46.437
00:14:21.736 : en:00:14:21.736
00:19:54.151 : en:00:19:54.151
00:22:50.119 : en:00:22:50.119
00:26:46.480 : en:00:26:46.480
00:30:37.044 : en:00:30:37.044
00:34:48.253 : en:00:34:48.253
00:39:25.863 : en:00:39:25.863
00:42:19.954 : en:00:42:19.954





24 S09E07


24 S09E07


24 S09E07


24 S09E07


24 S09E07

All episodes