Tags
Language
Tags

24 S09E09

Posted By: Tavaz
1080p (FullHD) / BluRay Remux IMDb
24 S09E09

24 S09E09
BluRay Remux | MKV | 1920x1080 | English | H264 @ 22435 kbps | DTS | 43 min 33 s | 7.98 GiB
Subtitles: Italian, Dutch, French, English
Genre: Drama

24 is an American television series produced for the Fox network and syndicated worldwide, starring Kiefer Sutherland as Counter Terrorist Unit agent Jack Bauer. Each 24-episode season covers 24 hours in the life of Bauer, using the real time method of narration.

a56a774b37b443f5bcb8f3ad7078069f.mkv (8.0 GB)



General
Unique ID : 180003557662056164016262723577042179284 (0x876B6C970B6FDB1BB9262037087814D4)
Complete name : ./a56a774b37b443f5bcb8f3ad7078069f.mkv
Format : Matroska
Format version : Version 4 / Version 2
File size : 7.98 GiB
Duration : 43 min 33 s
Overall bit rate mode : Variable
Overall bit rate : 26.2 Mb/s
Movie name : 24 S09E09
Encoded date : UTC 2017-08-10 18:41:26
Writing application : mkvmerge v13.0.0 ('The Juggler') 64bit
Writing library : libebml v1.3.4 + libmatroska v1.4.5

Video
ID : 1
Format : AVC
Format/Info : Advanced Video Codec
Format profile : High@L4.1
Format settings : CABAC / 4 Ref Frames
Format settings, CABAC : Yes
Format settings, RefFrames : 4 frames
Codec ID : V_MPEG4/ISO/AVC
Duration : 43 min 33 s
Bit rate mode : Variable
Bit rate : 22.4 Mb/s
Maximum bit rate : 36.0 Mb/s
Width : 1 920 pixels
Height : 1 080 pixels
Display aspect ratio : 16:9
Frame rate mode : Constant
Frame rate : 23.976 (24000/1001) FPS
Color space : YUV
Chroma subsampling : 4:2:0
Bit depth : 8 bits
Scan type : Progressive
Bits/(Pixel*Frame) : 0.451
Stream size : 6.83 GiB (86%)
Default : Yes
Forced : No

Audio
ID : 2
Format : DTS
Format/Info : Digital Theater Systems
Format profile : MA / Core
Mode : 16
Format settings, Endianness : Big
Codec ID : A_DTS
Duration : 43 min 33 s
Bit rate mode : Variable / Constant
Bit rate : 3 629 kb/s / 1 509 kb/s
Channel(s) : 6 channels
Channel positions : Front: L C R, Side: L R, LFE
Sampling rate : 48.0 kHz
Frame rate : 93.750 FPS (512 SPF)
Bit depth : 24 bits
Compression mode : Lossless / Lossy
Stream size : 1.10 GiB (14%)
Title : DTS-HD MA 5.1
Language : English
Default : Yes
Forced : No

Text #1
ID : 3
Format : PGS
Codec ID : S_HDMV/PGS
Codec ID/Info : Picture based subtitle format used on BDs/HD-DVDs
Duration : 43 min 17 s
Bit rate : 42.2 kb/s
Count of elements : 1320
Stream size : 13.1 MiB (0%)
Title : English
Language : English
Default : No
Forced : No

Text #2
ID : 4
Format : PGS
Codec ID : S_HDMV/PGS
Codec ID/Info : Picture based subtitle format used on BDs/HD-DVDs
Duration : 43 min 17 s
Bit rate : 39.0 kb/s
Count of elements : 1316
Stream size : 12.1 MiB (0%)
Title : French
Language : French
Default : No
Forced : No

Text #3
ID : 5
Format : PGS
Codec ID : S_HDMV/PGS
Codec ID/Info : Picture based subtitle format used on BDs/HD-DVDs
Duration : 43 min 17 s
Bit rate : 37.0 kb/s
Count of elements : 1320
Stream size : 11.5 MiB (0%)
Title : Dutch
Language : Dutch
Default : No
Forced : No

Text #4
ID : 6
Format : PGS
Codec ID : S_HDMV/PGS
Codec ID/Info : Picture based subtitle format used on BDs/HD-DVDs
Duration : 42 min 19 s
Bit rate : 42.2 kb/s
Count of elements : 1292
Stream size : 12.8 MiB (0%)
Title : Italian
Language : Italian
Default : No
Forced : No

Menu
00:00:00.000 : en:00:00:00.000
00:02:13.216 : en:00:02:13.216
00:06:24.259 : en:00:06:24.259
00:13:37.483 : en:00:13:37.483
00:17:53.281 : en:00:17:53.281
00:22:42.778 : en:00:22:42.778
00:24:33.639 : en:00:24:33.639
00:27:29.189 : en:00:27:29.189
00:31:10.160 : en:00:31:10.160
00:36:29.062 : en:00:36:29.062
00:41:15.181 : en:00:41:15.181
00:42:55.573 : en:00:42:55.573





24 S09E09


24 S09E09


24 S09E09


24 S09E09


24 S09E09

All episodes