Tags
Language
Tags

CC-C - Apocalypse Verdun: Series 1 (2016)

Posted By: Tutorial
1080p (FullHD) / HDTV
CC-C - Apocalypse Verdun: Series 1 (2016)

CC-C - Apocalypse Verdun: Series 1 (2016)
HDTV | 1920 x 1080 | .MP4/AVC @ 6024 Kbps | 2x~45mn | 4.33 GB
Audio: English AAC 160 Kbps, 2 channels | Subs: English
Genre: Documentary

A gripping and shocking documentary composed of numerous colorized archive footage. Apocalypse: Verdun takes us to the infamous and bloody battle of Verdun that occurred in February 1916, when World War I had been raging for two years.
The battle of Verdun, the largest confrontation between German and French forces during the war, which was fought for 300 days over 20 kilometers of front line.

Part 1: The Carnage
World War I, end of 1915. The British and French commanders want to put an end to the carnage by attacking the Germans in the region of the Somme. But these surprise them by triggering a steel storm on February 1916 in the camps near the village of Verdun.


Part 2: The Illusion
Under the new commander of Verdun, General P?tain, the French army tries to block the invasion. In the Somme, the Allies finally attack on July 1, 1916, but the assault turns into a disaster and put Verdun back at the center of all hopes and concerns. The French army counterattacks and wins the battle. But how many lives were sacrificed?

General
Complete name : Apocalypse.Verdun.Part.1.The.Carnage.mp4
Format : MPEG-4
Format profile : Base Media
Codec ID : isom (isom)
File size : 1.97 GiB
Duration : 45 min 39 s
Overall bit rate mode : Variable
Overall bit rate : 6 187 kb/s
Encoded date : UTC 2020-07-31 15:04:11
Tagged date : UTC 2020-07-31 15:04:11

Video
ID : 1
Format : AVC
Format/Info : Advanced Video Codec
Format profile : High@L4.1
Format settings, CABAC : No
Format settings, ReFrames : 2 frames
Format settings, GOP : M=1, N=12
Codec ID : avc1
Codec ID/Info : Advanced Video Coding
Duration : 45 min 39 s
Bit rate : 6 024 kb/s
Maximum bit rate : 32.3 Mb/s
Width : 1 920 pixels
Height : 1 080 pixels
Display aspect ratio : 16:9
Frame rate mode : Constant
Frame rate : 25.000 FPS
Color space : YUV
Chroma subsampling : 4:2:0
Bit depth : 8 bits
Scan type : Progressive
Bits/(Pixel*Frame) : 0.116
Stream size : 1.92 GiB (97%)
Title : Apocalypse.Verdun.Part.1.The.Carnage.1080p.HDTV.x264.AAC..org.mp4
Encoded date : UTC 2020-07-31 12:03:07
Tagged date : UTC 2020-07-31 15:05:20

Audio
ID : 2
Format : AAC
Format/Info : Advanced Audio Codec
Format profile : LC
Codec ID : 40
Duration : 45 min 39 s
Bit rate mode : Variable
Bit rate : 160 kb/s
Maximum bit rate : 230 kb/s
Channel(s) : 2 channels
Channel positions : Front: L R
Sampling rate : 48.0 kHz
Frame rate : 46.875 FPS (1024 spf)
Compression mode : Lossy
Stream size : 52.2 MiB (3%)
Title : Apocalypse.Verdun.Part.1.The.Carnage.1080p.HDTV.x264.AAC..org.mp4
Encoded date : UTC 2020-07-31 15:04:55
Tagged date : UTC 2020-07-31 15:05:20

Text
ID : 3
Format : Timed Text
Codec ID : tx3g
Duration : 45 min 35 s
Bit rate mode : Variable
Bit rate : 87 b/s
Stream size : 29.2 KiB (0%)
Title : Apocalypse.Verdun.Part.1.The.Carnage.1080p.HDTV.x264.AAC..org.srt
Forced : No
Encoded date : UTC 2020-07-31 15:05:20
Tagged date : UTC 2020-07-31 15:05:20
Screenshots

CC-C - Apocalypse Verdun: Series 1 (2016)

CC-C - Apocalypse Verdun: Series 1 (2016)

CC-C - Apocalypse Verdun: Series 1 (2016)

Welcome to my blog - daily update!
CC-C - Apocalypse Verdun: Series 1 (2016)