Love Under New Management: The Miki Howard Story (2016)

Posted By: Tavaz
720p (HD) / HDTV IMDb
Love Under New Management: The Miki Howard Story (2016)

Love Under New Management: The Miki Howard Story (2016)
HDTV | MKV | 1280x720 | English | H264 @ 3466 kbps | AC-3 @ 384 kbps | 1 h 22 min | 2.21 GiB
Subtitles: English
Genre: Biography

Story of Miki Howard, an American R&B and Jazz singer, whose hits include "Ain't Nobody Like You" and "Ain't Nuthin' in the World."

7adc169f143f42a7b9244aa07dad3b5f.mkv (2.2 GB)



General
Complete name : ./7adc169f143f42a7b9244aa07dad3b5f.mkv
Format : Matroska
Format version : Version 4 / Version 2
File size : 2.21 GiB
Duration : 1 h 22 min
Overall bit rate : 3 853 kb/s
Encoded date : UTC 2018-01-05 17:29:16
Writing application : mkvmerge v16.0.0 ('Protest') 64-bit
Writing library : libebml v1.3.5 + libmatroska v1.4.8

Video
ID : 1
Format : AVC
Format/Info : Advanced Video Codec
Format profile : High@L4.1
Format settings : CABAC / 5 Ref Frames
Format settings, CABAC : Yes
Format settings, RefFrames : 5 frames
Codec ID : V_MPEG4/ISO/AVC
Duration : 1 h 22 min
Bit rate : 3 467 kb/s
Width : 1 280 pixels
Height : 720 pixels
Display aspect ratio : 16:9
Frame rate mode : Constant
Frame rate : 23.976 (24000/1001) FPS
Color space : YUV
Chroma subsampling : 4:2:0
Bit depth : 8 bits
Scan type : Progressive
Bits/(Pixel*Frame) : 0.157
Stream size : 1.99 GiB (90%)
Writing library : x264 core 152 r2851 ba24899
Encoding settings : cabac=1 / ref=5 / deblock=1:0:0 / analyse=0x3:0x113 / me=hex / subme=8 / psy=1 / psy_rd=1.00:0.00 / mixed_ref=1 / me_range=16 / chroma_me=1 / trellis=2 / 8x8dct=1 / cqm=0 / deadzone=21,11 / fast_pskip=1 / chroma_qp_offset=-2 / threads=18 / lookahead_threads=3 / sliced_threads=0 / nr=0 / decimate=1 / interlaced=0 / bluray_compat=0 / constrained_intra=0 / bframes=3 / b_pyramid=2 / b_adapt=1 / b_bias=0 / direct=3 / weightb=1 / open_gop=0 / weightp=2 / keyint=250 / keyint_min=23 / scenecut=40 / intra_refresh=0 / rc_lookahead=50 / rc=crf / mbtree=1 / crf=18.0 / qcomp=0.60 / qpmin=0 / qpmax=69 / qpstep=4 / ip_ratio=1.40 / aq=1:1.00
Default : Yes
Forced : No

Audio
ID : 2
Format : AC-3
Format/Info : Audio Coding 3
Format settings, Endianness : Big
Codec ID : A_AC3
Duration : 1 h 22 min
Bit rate mode : Constant
Bit rate : 384 kb/s
Channel(s) : 6 channels
Channel positions : Front: L C R, Side: L R, LFE
Sampling rate : 48.0 kHz
Frame rate : 31.250 FPS (1536 SPF)
Bit depth : 16 bits
Compression mode : Lossy
Stream size : 226 MiB (10%)
Language : English
Service kind : Complete Main
Default : Yes
Forced : No

Text
ID : 3
Format : UTF-8
Codec ID : S_TEXT/UTF8
Codec ID/Info : UTF-8 Plain Text
Duration : 1 h 22 min
Bit rate : 233 b/s
Count of elements : 2371
Stream size : 140 KiB (0%)
Language : English
Default : No
Forced : No





Love Under New Management: The Miki Howard Story (2016)


Love Under New Management: The Miki Howard Story (2016)


Love Under New Management: The Miki Howard Story (2016)


Love Under New Management: The Miki Howard Story (2016)


Love Under New Management: The Miki Howard Story (2016)