Tags
Language
Tags

Metropolis [Reconstructed & Restored] (1927)

Posted By: RSU75
SD / DVD IMDb
Metropolis [Reconstructed & Restored] (1927)

Metropolis (1927) [EUREKA! / MoC (Masters of Cinema), Reconstructed & Restored]
DVD Video | NTSC 4:3 | 720x480 | 2hr 30mn | 6.86 Gb
DVDRip | MKV | AVC 720x480, ~ 1.7 Mbps | 2hr 30mn | 2.75 GB
German (Deutsch): AC3, 2 ch, 256 kbps \ AC3, 6 ch, 448 kbps; English (commentary): AC3, 2 ch, 256 kbps
Subtitles: German (intertitles), English
Genre: Drama, Sci-Fi


Directors: Fritz Lang
Writers: Thea von Harbou (screenplay), Thea von Harbou (novel)
Stars: Brigitte Helm, Alfred Abel, Gustav Fröhlich

Sometime in the future, the city of Metropolis is home to a Utopian society where its wealthy residents live a carefree life. One of those is Freder Fredersen. One day, he spots a beautiful woman with a group of children, she and the children quickly disappear. Trying to follow her, he is horrified to find an underground world of workers who apparently run the machinery that keeps the Utopian world above ground functioning. One of the few people above ground who knows about the world below is Freder's father, John Fredersen, who is the founder and master of Metropolis. Freder learns that the woman is called Maria, who espouses the need to join the "hands" - the workers - to the "head" - those in power above - by a mediator who will act as the "heart". Freder wants to help the plight of the workers in their struggle for a better life. But when John learns of what Maria is advocating and that Freder has joined their cause, with the assistance of an old colleague. an inventor called …

Extras:
- 150-minute reconstructed and restored 2010 version (including 25 minutes of footage previously thought lost to the world)
- Wraparound embossed sleeve
- Pristine new HD transfer (1080p on Blu-ray)
- New 2010 symphony orchestra studio recording of the original 1927 Gottfried Huppertz score in 5.1
- Newly translated optional English subtitles as well as the original German intertitles
- Full-length audio commentary by David Kalat and Jonathan Rosenbaum
- Die Reise nach Metropolis (2010, 53 minutes), a documentary about the film
- 2010 re-release trailer




Title: Metropolis.Restored.1927.MoC.D9
Size: 6.86 Gb ( 7 192 058,00 KBytes ) - DVD-9
Enabled regions: 1, 2, 3, 4, 5, 6, 7, 8

VTS_01 :
Play Length: 00:00:00
Video: NTSC 4:3 (720x480) VBR

VTS_02 :
Play Length: 02:30:09
Video: NTSC 4:3 (720x480) VBR
Audio:
Deutsch (Dolby AC3, 2 ch)
Deutsch (Dolby AC3, 6 ch)
English (Dolby AC3, 2 ch)
Subtitles:
English

VTS_03 :
Play Length: 00:02:01
Video: NTSC 4:3 (720x480) VBR
Audio:
English (Dolby AC3, 2 ch)

VTS_04 :
Play Length: 00:00:12
Video: NTSC 4:3 (720x480) VBR
Audio:
English (Dolby AC3, 2 ch)
English (Dolby AC3, 2 ch)
English (Dolby AC3, 2 ch)

VTS_05 :
Play Length: 00:54:38
Video: NTSC 16:9 (720x480) VBR, Auto Letterboxed
Audio:
Deutsch (Dolby AC3, 2 ch)
Subtitles:
English





General
Unique ID : 195165228469317669258608381568470772080 (0x92D374ACC47DC90FB461140E0C806970)
Complete name : F:\Metropolis.Restored.1927.MoC.Dr\Metropolis.Restored.1927.MoC.Dr.mkv
Format : Matroska
Format version : Version 4 / Version 2
File size : 2.75 GiB
Duration : 2 h 30 min
Overall bit rate : 2 624 kb/s
Movie name : Release RSU75
Encoded date : UTC 2020-02-15 04:13:00
Writing application : mkvmerge v6.6.0 ('The Edge Of The In Between') built on Dec 1 2013 17:55:00
Writing library : libebml v1.3.0 + libmatroska v1.4.1

Video
ID : 1
Format : AVC
Format/Info : Advanced Video Codec
Format profile : High@L4.1
Format settings : CABAC / 4 Ref Frames
Format settings, CABAC : Yes
Format settings, ReFrames : 4 frames
Codec ID : V_MPEG4/ISO/AVC
Duration : 2 h 30 min
Bit rate : 1 612 kb/s
Nominal bit rate : 1 700 kb/s
Width : 720 pixels
Height : 480 pixels
Display aspect ratio : 4:3
Frame rate mode : Constant
Frame rate : 23.976 (23976/1000) FPS
Color space : YUV
Chroma subsampling : 4:2:0
Bit depth : 8 bits
Scan type : Progressive
Bits/(Pixel*Frame) : 0.195
Stream size : 1.69 GiB (61%)
Writing library : x264 core 148 r2643 5c65704
Encoding settings : cabac=1 / ref=4 / deblock=1:0:0 / analyse=0x3:0x113 / me=umh / subme=8 / psy=1 / psy_rd=1.00:0.00 / mixed_ref=1 / me_range=24 / chroma_me=1 / trellis=1 / 8x8dct=1 / cqm=0 / deadzone=21,11 / fast_pskip=1 / chroma_qp_offset=-2 / threads=3 / lookahead_threads=1 / sliced_threads=0 / nr=0 / decimate=1 / interlaced=0 / bluray_compat=0 / constrained_intra=0 / bframes=3 / b_pyramid=0 / b_adapt=2 / b_bias=0 / direct=3 / weightb=1 / open_gop=0 / weightp=2 / keyint=250 / keyint_min=25 / scenecut=40 / intra_refresh=0 / rc_lookahead=40 / rc=abr / mbtree=1 / bitrate=1700 / ratetol=1.0 / qcomp=0.60 / qpmin=10 / qpmax=51 / qpstep=4 / ip_ratio=1.41 / aq=1:1.00
Language : English
Default : Yes
Forced : No

Audio #1
ID : 2
Format : AC-3
Format/Info : Audio Coding 3
Commercial name : Dolby Digital
Codec ID : A_AC3
Duration : 2 h 30 min
Bit rate mode : Constant
Bit rate : 256 kb/s
Channel(s) : 2 channels
Channel layout : L R
Sampling rate : 48.0 kHz
Frame rate : 31.250 FPS (1536 SPF)
Bit depth : 16 bits
Compression mode : Lossy
Stream size : 275 MiB (10%)
Title : Stereo
Language : German
Service kind : Complete Main
Default : Yes
Forced : No

Audio #2
ID : 3
Format : AC-3
Format/Info : Audio Coding 3
Commercial name : Dolby Digital
Codec ID : A_AC3
Duration : 2 h 30 min
Bit rate mode : Constant
Bit rate : 448 kb/s
Channel(s) : 6 channels
Channel layout : L R C LFE Ls Rs
Sampling rate : 48.0 kHz
Frame rate : 31.250 FPS (1536 SPF)
Bit depth : 16 bits
Compression mode : Lossy
Stream size : 481 MiB (17%)
Title : Surround 5.1
Language : German
Service kind : Complete Main
Default : No
Forced : No

Audio #3
ID : 4
Format : AC-3
Format/Info : Audio Coding 3
Commercial name : Dolby Digital
Codec ID : A_AC3
Duration : 2 h 30 min
Bit rate mode : Constant
Bit rate : 256 kb/s
Channel(s) : 2 channels
Channel layout : L R
Sampling rate : 48.0 kHz
Frame rate : 31.250 FPS (1536 SPF)
Bit depth : 16 bits
Compression mode : Lossy
Stream size : 275 MiB (10%)
Title : Stereo
Language : English
Service kind : Complete Main
Default : No
Forced : No

Text
ID : 5
Format : VobSub
Muxing mode : zlib
Codec ID : S_VOBSUB
Codec ID/Info : Picture based subtitle format used on DVDs
Language : English
Default : Yes
Forced : No

Menu
00:00:00.000 : en:Chapter 01
00:03:08.188 : en:Chapter 02
00:06:39.682 : en:Chapter 03
00:07:30.149 : en:Chapter 04
00:13:29.091 : en:Chapter 05
00:17:37.222 : en:Chapter 06
00:18:58.754 : en:Chapter 07
00:32:45.046 : en:Chapter 08
00:38:03.397 : en:Chapter 09
00:44:20.357 : en:Chapter 10
00:50:52.883 : en:Chapter 11
01:02:32.782 : en:Chapter 12
01:06:17.757 : en:Chapter 13
01:09:46.715 : en:Chapter 14
01:17:51.366 : en:Chapter 15
01:26:02.407 : en:Chapter 16
01:34:43.928 : en:Chapter 17
01:39:27.077 : en:Chapter 18
01:54:06.289 : en:Chapter 19
02:06:45.798 : en:Chapter 20
02:19:34.983 : en:Chapter 21
02:23:42.397 : en:Chapter 22
02:26:37.238 : en:Chapter 23




Screenshots DVD (click to enlarge to original size):

Metropolis [Reconstructed & Restored] (1927)

Metropolis [Reconstructed & Restored] (1927)

Metropolis [Reconstructed & Restored] (1927)

Metropolis [Reconstructed & Restored] (1927)

Metropolis [Reconstructed & Restored] (1927)



All thanks to the original uploader

Screenshots DVDRip (click to enlarge to original size):

Metropolis [Reconstructed & Restored] (1927)






If you like this release please visit my blog
In it you will find "Masters of Cinema - Eureka!" releases (DVD, DVDRip, Blu-Ray, BDRip)