The Dukes of Hazzard: The Beginning (2007)

Posted By: Tavaz
SD / DVDRip IMDb
The Dukes of Hazzard: The Beginning (2007)

The Dukes of Hazzard: The Beginning (2007)
DVDRip | AVI | 624x336 | MP4V-ES @ 886 kbps | MPEG Audio @ 125 kbps | 1 h 35 min | 700 MiB
Genre: Action, Adventure, Comedy

Cousins Bo, Luke and Daisy are sent to Hazzard County, Georgia for the first time to live with their Uncle Jesse. Jesse is a farmer and a moonshiner and is constantly battling his old rival Boss Hogg who is the corrupt city commissioner of the small town.

bestdivx-tdohb-sample.avi (8.5 MB)
bestdivx-tdohb.avi (700.4 MB)



General
Complete name : ./bestdivx-tdohb.avi
Format : AVI
Format/Info : Audio Video Interleave
File size : 700 MiB
Duration : 1 h 35 min
Overall bit rate mode : Variable
Overall bit rate : 1 025 kb/s
Writing application : Nandub v1.0rc2
Writing library : Nandub build 1852/release

Video
ID : 0
Format : MPEG-4 Visual
Format profile : Advanced Simple@L5
Format settings : BVOP2
Format settings, BVOP : 2
Format settings, QPel : No
Format settings, GMC : No warppoints
Format settings, Matrix : Default (MPEG)
Muxing mode : Packed bitstream
Codec ID : XVID
Codec ID/Hint : XviD
Duration : 1 h 35 min
Bit rate : 886 kb/s
Width : 624 pixels
Height : 336 pixels
Display aspect ratio : 1.85:1
Frame rate : 23.976 (24000/1001) FPS
Color space : YUV
Chroma subsampling : 4:2:0
Bit depth : 8 bits
Scan type : Progressive
Compression mode : Lossy
Bits/(Pixel*Frame) : 0.176
Stream size : 606 MiB (86%)
Writing library : XviD 1.1.0 (UTC 2005-11-22)

Audio
ID : 1
Format : MPEG Audio
Format version : Version 1
Format profile : Layer 3
Format settings : Joint stereo / MS Stereo
Mode : Joint stereo
Mode extension : MS Stereo
Codec ID : 55
Codec ID/Hint : MP3
Duration : 1 h 35 min
Bit rate mode : Variable
Bit rate : 126 kb/s
Minimum bit rate : 96.0 kb/s
Channel(s) : 2 channels
Sampling rate : 48.0 kHz
Compression mode : Lossy
Stream size : 86.1 MiB (12%)
Alignment : Aligned on interleaves
Interleave, duration : 24 ms (0.58 video frame)
Interleave, preload duration : 237 ms
Writing library : LAME3.90.
Encoding settings : -m j -V 4 -q 2 -lowpass 18.7 –vbr-new -b 96





The Dukes of Hazzard: The Beginning (2007)


The Dukes of Hazzard: The Beginning (2007)


The Dukes of Hazzard: The Beginning (2007)


The Dukes of Hazzard: The Beginning (2007)


The Dukes of Hazzard: The Beginning (2007)