Vier gegen die Bank (2016)

Posted By: Without
Vier gegen die Bank (2016)

Vier gegen die Bank (2016)
BDRip 720p | MKV | 1280x534 | AVC@6258 kb/s | German AC3@640 kb/s
Subs: English, German | 6 channels | 1 h 35 min | 4.63 GB
Genre: Comedy, Crime

Four men, betrayed by the bank, unite to take revenge.

IMDB - 2 nominations.


General
Vier.gegen.die.Bank.2016.720p.BluRay.DD5.1.x264-SbR\Vier gegen die Bank 2016 720p BluRay DD5.1 x264-SbR .mkv
Format : Matroska
Format version : Version 4 / Version 2
File size : 4.63 GiB
Duration : 1 h 35 min
Overall bit rate : 6 900 kb/s
Encoded date : UTC 2017-10-18 12:30:36
Writing application : mkvmerge v16.0.0 ('Protest') 64-bit
Writing library : libebml v1.3.5 + libmatroska v1.4.8
Cover : Yes
Attachments : cover.jpg

Video
ID : 1
Format : AVC
Format/Info : Advanced Video Codec
Format profile : High@L4.1
Format settings, CABAC : Yes
Format settings, ReFrames : 12 frames
Codec ID : V_MPEG4/ISO/AVC
Duration : 1 h 35 min
Bit rate : 6 258 kb/s
Width : 1 280 pixels
Height : 534 pixels
Display aspect ratio : 2.40:1
Frame rate mode : Constant
Frame rate : 23.976 (24000/1001) FPS
Color space : YUV
Chroma subsampling : 4:2:0
Bit depth : 8 bits
Scan type : Progressive
Bits/(Pixel*Frame) : 0.382
Stream size : 4.19 GiB (91%)
Writing library : x264 core 152 r2851+58 429492e t_mod_Custom [8-bit@all X86_64]
Encoding settings : cabac=1 / ref=12 / deblock=1:-3:-3 / analyse=0x3:0x133 / me=umh / subme=10 / psy=1 / fade_compensate=0.00 / psy_rd=1.05:0.00 / mixed_ref=1 / me_range=48 / chroma_me=1 / trellis=2 / 8x8dct=1 / cqm=0 / deadzone=21,11 / fast_pskip=0 / chroma_qp_offset=-2 / threads=6 / lookahead_threads=1 / sliced_threads=0 / nr=0 / decimate=1 / interlaced=0 / bluray_compat=0 / constrained_intra=0 / fgo=0 / bframes=12 / b_pyramid=2 / b_adapt=2 / b_bias=0 / direct=3 / weightb=1 / open_gop=0 / weightp=2 / keyint=250 / keyint_min=23 / scenecut=40 / intra_refresh=0 / rc_lookahead=60 / rc=crf / mbtree=0 / crf=16.0000 / qcomp=0.70 / qpmin=0:0:0 / qpmax=69:69:69 / qpstep=4 / vbv_maxrate=62500 / vbv_bufsize=78125 / crf_max=0.0 / nal_hrd=none / filler=0 / ip_ratio=1.30 / pb_ratio=1.20 / aq=3:0.80 / aq-sensitivity=10.00 / aq-factor=1.00:1.00:1.00 / aq2=1:0.70 / aq2-sensitivity=15.00 / aq2-factor=1.00:1.00:1.00 / aq3=3:[0.65:0.65]:[0.65:0.65]:[0.65:0.65]:[0.65:0.65] / aq3-sensitivity=10.00 / aq3-factor=[1.00:1.00]:[1.00:1.00]:[1.00:1.00] / aq3-boundary=192:64:24 / zones=64,1579,crf=14.0
Language : English
Default : Yes
Forced : No
Color range : Limited
Color primaries : BT.709
Transfer characteristics : BT.709
Matrix coefficients : BT.709

Audio
ID : 2
Format : AC-3
Format/Info : Audio Coding 3
Mode extension : CM (complete main)
Format settings, Endianness : Big
Codec ID : A_AC3
Duration : 1 h 35 min
Bit rate mode : Constant
Bit rate : 640 kb/s
Channel(s) : 6 channels
Channel positions : Front: L C R, Side: L R, LFE
Sampling rate : 48.0 kHz
Frame rate : 31.250 FPS (1536 spf)
Bit depth : 16 bits
Compression mode : Lossy
Stream size : 439 MiB (9%)
Language : German
Default : Yes
Forced : No

Text #1
ID : 3
Format : UTF-8
Codec ID : S_TEXT/UTF8
Codec ID/Info : UTF-8 Plain Text
Duration : 1 h 31 min
Bit rate : 63 b/s
Count of elements : 1114
Stream size : 42.4 KiB (0%)
Language : English
Default : No
Forced : No

Text #2
ID : 4
Format : UTF-8
Codec ID : S_TEXT/UTF8
Codec ID/Info : UTF-8 Plain Text
Duration : 1 h 28 min
Bit rate : 70 b/s
Count of elements : 1178
Stream size : 45.8 KiB (0%)
Language : German
Default : No
Forced : No

Text #3
ID : 5
Format : UTF-8
Codec ID : S_TEXT/UTF8
Codec ID/Info : UTF-8 Plain Text
Duration : 1 h 28 min
Bit rate : 74 b/s
Count of elements : 1245
Stream size : 47.9 KiB (0%)
Title : SDH
Language : German
Default : No
Forced : No

Menu
00:00:00.000 : en:00:00:00.000
00:09:38.703 : en:00:09:38.703
00:17:04.232 : en:00:17:04.232
00:25:13.721 : en:00:25:13.721
00:34:46.042 : en:00:34:46.042
00:42:16.284 : en:00:42:16.284
00:48:43.963 : en:00:48:43.963
00:56:12.953 : en:00:56:12.953
01:02:25.659 : en:01:02:25.659
01:10:42.280 : en:01:10:42.280
01:20:28.323 : en:01:20:28.323
01:27:11.184 : en:01:27:11.184


BDRip 720p Screenshots

Vier gegen die Bank (2016)

Vier gegen die Bank (2016)

Vier gegen die Bank (2016)

Vier gegen die Bank (2016)

Vier gegen die Bank (2016)


Come Visit My Blog (•‿•)