Tags
Language
Tags

Build a Deck with Rick Arnold

Posted By: ParRus
Build a Deck with Rick Arnold

Build a Deck with Rick Arnold
DVDRip | English | MP4 + PDF Guide | 592 x 396 | AVC ~808 Kbps | 29.970 fps
AAC | 96 Kbps | 48.0 KHz | 2 channels | 00:44:18 | 292 MB
Genre: eLearning Video / Homebuilding, Repair

Before you start, see how an expert builds a deck. Decks are popular projects for pros and homeowners but there are safety issues, building codes, and hidden problems to address upfront and throughout the process. This video takes place on an actual job site and includes some not-so-perfect moments to prepare you for what can happen. With fewer surprises, you’ll get better results.
Follow a master builder from footings to final trim. Master builder Rick Arnold walks you through every step of the project and points out potential problems – such as hidden rot, those all-important ledger board issues, and load capacity. And shows you how to remedy anything that might adversely affect your new deck.

Learn the techniques to get it right. Watching this video will save you time because you’ll thoroughly understand the process. If you square up the deck correctly at the outset – and check that it remains square at critical times – you’ll avoid bigger problems down the line. And you won’t ever have to explain why your deck is a little off kilter. That’s just one of many reasons why this video is worth watching and reviewing.

Be aware of code requirements. Throughout the video, you’ll be alerted to issues that may be regulated by local building codes. This will save you time and avoid the possibility of being denied a permit, or having to make costly changes, or re-do work to meet the proper requirements.

Working with the newest materials. You’ll do a much better job when you know what materials to use and how to work with them. Here are just some you’ll be introduced to: builder’s forms for footings, proper hardware and hangers, synthetic decking, railings, and decorative trim.

Invest 44 minutes for years of pleasure. With this video guide you’ll have the confidence and the know-how to build a deck that’s sturdy, strong and safe – and one that enhances your home for years to come.

Master builder Rick Arnold is an experienced professional with more than 20 years experience, a contributing editor to Fine Homebuilding magazine, and a nationally recognized seminar leader who conducts demonstrations at trade shows and conferences across the country.

You can watch other useful Homebuilding videos:

Tiling Floors - by Michael Byrne

Tiling Walls - by Michael Byrne

B&Qtiles - Lessons on Tiling

Drywall: Hanging and Taping on DVD

Tiling Projects 1-2-3

Framing Roofs with Larry Haun

Framing Floors & Stairs (with Larry Haun)

Basic Stairbuilding DVD with Scott Schuttner

BBC Design Rules

Installing Doors and Windows (with Tom Law)

Installing Trim with Craig Savage - Fine Homebuilding DVD Workshop

Framing Walls with Larry Haun - Fine Homebuilding DVD Workshop

Tiling Countertops with Michael Byrne

Black & Decker The Complete Guide to Wiring - 5th Edition

Installing Kitchen Cabinets and Countertops: with Tom Law

Building Decks with Scott Schutter - Fine Homebuilding DVD Workshop

Black & Decker The Complete Guide to Kitchens

Concrete Countertops DIY featuring Fu-Tung Cheng

Taunton - Installing Kitchen Cabinets Made Simple

HomeTime: How-To Guide to Landscaping

Building with Awareness: The Construction of a Hybrid Home

Black & Decker The Complet...y & Stonework (DVD + Book)

Energy Efficient Housing Series R-2000

How-To Guide to Ceramic Tile with Dean Johnson

The How-To Guide to Building a Monolithic Concrete Slab Foundation

HomeTime: How-To Guide to Faux Finishing

Build a Deck with Rick Arnold

Black & Decker The Complete Guide to Masonry & Stonework

Building Green

BRICKFORM - Coloured Concrete Construction Source

The Best of Ask This Old House... Household Projects Done Right

Roundwood Timber Framing: Building Naturally Using Local Resources

That's How We Build a House

El barro, Las manos, La casa

The How-To Guide to Building with Straw Bales, Post and Beam Infill

also You can watch my other helpful: Repair-posts
(if old file-links don't show activity, try copy-paste them to the address bar)

General
Complete name : Build a Deck.mp4
Format : MPEG-4
Format profile : Base Media / Version 2
Codec ID : mp42
File size : 288 MiB
Duration : 44mn 18s
Overall bit rate mode : Variable
Overall bit rate : 909 Kbps
Encoded date : UTC 2012-03-06 07:00:59
Tagged date : UTC 2012-03-06 07:53:38

Video
ID : 1
Format : AVC
Format/Info : Advanced Video Codec
Format profile : Main@L3.0
Format settings, CABAC : Yes
Format settings, ReFrames : 4 frames
Codec ID : avc1
Codec ID/Info : Advanced Video Coding
Duration : 44mn 18s
Bit rate mode : Variable
Bit rate : 808 Kbps
Maximum bit rate : 3 714 Kbps
Width : 592 pixels
Height : 396 pixels
Display aspect ratio : 3:2
Original display aspect ratio : 16:9
Frame rate mode : Constant
Frame rate : 29.970 fps
Standard : NTSC
Color space : YUV
Chroma subsampling : 4:2:0
Bit depth : 8 bits
Scan type : Progressive
Bits/(Pixel*Frame) : 0.115
Stream size : 256 MiB (89%)
Language : English
Encoded date : UTC 2012-03-06 07:01:00
Tagged date : UTC 2012-03-06 07:53:38

Audio
ID : 2
Format : AAC
Format/Info : Advanced Audio Codec
Format profile : LC
Codec ID : 40
Duration : 44mn 18s
Bit rate mode : Variable
Bit rate : 96.0 Kbps
Maximum bit rate : 104 Kbps
Channel(s) : 2 channels
Channel positions : Front: L R
Sampling rate : 48.0 KHz
Compression mode : Lossy
Stream size : 30.4 MiB (11%)
Title : Unspecified
Language : English
Encoded date : UTC 2012-03-06 07:01:00
Tagged date : UTC 2012-03-06 07:53:38

Menu
00:00:00.000 : 0. Introduction
00:04:54.000 : 1. Build a Solid Foundation
00:13:23.500 : 2. Frame the Deck
00:20:42.500 : 3. Install the Joists
00:28:41.500 : 4. Lay Down the Decking
00:33:26.000 : 5. Build Basic Deck Stairs
00:39:09.500 : 6. Assemble the Railing
Screenshots

Build a Deck with Rick Arnold

Build a Deck with Rick Arnold

Build 			  		 	 	  		  	   	 			   		  	   		      		 	 	  	 			   		   	  		 		   		 			  	 			   		   	  		      		 	  			 a Deck with Rick Arnold

Build a Deck with Rick Arnold

Build a Deck with Rick Arnold

Build a Deck with Rick Arnold

✅ Exclusive eLearning Videos ParRus-blogadd to bookmarks

Feel free to contact me PM
when links are dead or want any repost

Build a Deck with Rick Arnold