Tags
Language
Tags

Tiling Walls - by Michael Byrne

Posted By: ParRus
Tiling Walls - by Michael Byrne

Tiling Walls - by Michael Byrne
DVDRip | English | AVI | 720 x 480 | XviD ~1863 Kbps | 29.970 fps
MP3 | 128 Kbps | 44.1 KHz | 1 channel | 1h 44mn | 1.46 GB
Genre: eLearning Video / Homebuilding, Repair

Now you can tile any wall in your house. From layout to grouting, professional tilesetter Michael Byrne offers his special insights into the techniques you need to accomplish the task. Using a bathroom job site, Byrne handles typical problems such as uneven, out-of-plumb walls, and maneuvering around bathtubs, plumbing and windows.
Rich in visual detail, the tape is clear enough for beginners and specific enough for professionals. Byrne teaches you to see the creative possibilities in awkward situations: a badly placed pony wall, for instance, becomes an attractive focal point when you tile it with a cove and a contrasting pinstripe. By watching Byrne you'll learn how to:

* use a jury stick to compare alternative layouts quickly
* apply a moisture membrane for a waterproof substrate
* mix mortar and float a vertical bed
* cut and shape tile, using biters and a snap cutter


See the companion videos, Tiling Floors and Tiling Countertops and the companion book, Setting Tile. Page numbers from the book are keyed to the screen so you can refer back for more information.

You can watch other useful Homebuilding videos:

Tiling Floors - by Michael Byrne

Tiling Walls - by Michael Byrne

B&Qtiles - Lessons on Tiling

Drywall: Hanging and Taping on DVD

Tiling Projects 1-2-3

Framing Roofs with Larry Haun

Framing Floors & Stairs (with Larry Haun)

Basic Stairbuilding DVD with Scott Schuttner

BBC Design Rules

Installing Doors and Windows (with Tom Law)

Installing Trim with Craig Savage - Fine Homebuilding DVD Workshop

Framing Walls with Larry Haun - Fine Homebuilding DVD Workshop

Tiling Countertops with Michael Byrne

Black & Decker The Complete Guide to Wiring - 5th Edition

Installing Kitchen Cabinets and Countertops: with Tom Law

Building Decks with Scott Schutter - Fine Homebuilding DVD Workshop

Black & Decker The Complete Guide to Kitchens

Concrete Countertops DIY featuring Fu-Tung Cheng

Taunton - Installing Kitchen Cabinets Made Simple

HomeTime: How-To Guide to Landscaping

Building with Awareness: The Construction of a Hybrid Home

Black & Decker The Complet...y & Stonework (DVD + Book)

Energy Efficient Housing Series R-2000

How-To Guide to Ceramic Tile with Dean Johnson

The How-To Guide to Building a Monolithic Concrete Slab Foundation

HomeTime: How-To Guide to Faux Finishing

Build a Deck with Rick Arnold

Black & Decker The Complete Guide to Masonry & Stonework

Building Green

BRICKFORM - Coloured Concrete Construction Source

The Best of Ask This Old House... Household Projects Done Right

Roundwood Timber Framing: Building Naturally Using Local Resources

That's How We Build a House

El barro, Las manos, La casa

The How-To Guide to Building with Straw Bales, Post and Beam Infill

also You can watch my other helpful: Repair-posts
(if old file-links don't show activity, try copy-paste them to the address bar)

General
Complete name : tiling walls.avi
Format : AVI
Format/Info : Audio Video Interleave
File size : 1.46 GiB
Duration : 1h 44mn
Overall bit rate : 2 005 Kbps

Video
ID : 1
Format : MPEG-4 Visual
Format profile : Simple@L3
Format settings, BVOP : 2
Format settings, QPel : No
Format settings, GMC : No warppoints
Format settings, Matrix : Default (H.263)
Muxing mode : Packed bitstream
Codec ID : XVID
Codec ID/Hint : XviD
Duration : 1h 44mn
Bit rate : 1 863 Kbps
Width : 720 pixels
Height : 480 pixels
Display aspect ratio : 3:2
Frame rate : 29.970 fps
Standard : NTSC
Color space : YUV
Chroma subsampling : 4:2:0
Bit depth : 8 bits
Scan type : Progressive
Compression mode : Lossy
Bits/(Pixel*Frame) : 0.180
Stream size : 1.36 GiB (93%)
Writing library : XviD 1.1.0 Beta2 (UTC 2005-04-04)

Audio
ID : 0
Format : MPEG Audio
Format version : Version 1
Format profile : Layer 3
Codec ID : 55
Codec ID/Hint : MP3
Duration : 1h 44mn
Bit rate mode : Constant
Bit rate : 128 Kbps
Channel(s) : 1 channel
Sampling rate : 44.1 KHz
Compression mode : Lossy
Delay relative to video : 26ms
Stream size : 95.7 MiB (6%)
Alignment : Split accross interleaves
Interleave, duration : 33 ms (1.00 video frame)
Writing library : LAME3.93
Screenshots

Tiling Walls - by Michael Byrne

Tiling Walls - by Michael Byrne

Tiling Walls - by Michael Byrne

Tiling Walls - by Michael Byrne

Tiling Walls - by Michael Byrne

Tiling Walls - by Michael Byrne

✅ Exclusive eLearning Videos ParRus-blogadd to bookmarks

Feel free to contact me PM
when links are dead or want any repost

Tiling Walls - by Michael Byrne