Tags
Language
Tags

Tiling Countertops with Michael Byrne

Posted By: ParRus
Tiling Countertops with Michael Byrne

Tiling Countertops with Michael Byrne
DVDRip | English | AVI | 720 x 480 | XviD ~1500 Kbps | 29 fps
MP3 | 128 Kbps | 44.1 KHz | 2 channels | 01:03:30 | 745 MB
Genre: eLearning Video / Construction, Homebuilding, Repair

Ceramic-tile countertops can be as attractive as they are practical. And a small countertop is the perfect introduction to the techniques of tiling. With a bathroom as his job site, professional tilesetter Michael Byrne demonstrates how to get traditional results with modern materials. You'll learn how to work with both backer-board and mortar-bed substrates, how to trim tile around a sink, and how to detail your countertop for a clean, crisp look. If this is your first go at tilesetting, Byrne gives you the confidence to see the job through. If you're an experienced tilesetter, you'll find this tape full of new ideas to bring to your next tile job.
By watching Byrne, you'll learn how to:

* lay out tile for an orderly appearance in any shaped space
* determine the proper consistency and coverage for thinset
* cut tile, using a snap cutter, biters and a wet saw
* finish a grout job that requires no next-day scrubbing


You can watch other useful Homebuilding videos:

Tiling Floors - by Michael Byrne

Tiling Walls - by Michael Byrne

B&Qtiles - Lessons on Tiling

Drywall: Hanging and Taping on DVD

Tiling Projects 1-2-3

Framing Roofs with Larry Haun

Framing Floors & Stairs (with Larry Haun)

Basic Stairbuilding DVD with Scott Schuttner

BBC Design Rules

Installing Doors and Windows (with Tom Law)

Installing Trim with Craig Savage - Fine Homebuilding DVD Workshop

Framing Walls with Larry Haun - Fine Homebuilding DVD Workshop

Tiling Countertops with Michael Byrne

Black & Decker The Complete Guide to Wiring - 5th Edition

Installing Kitchen Cabinets and Countertops: with Tom Law

Building Decks with Scott Schutter - Fine Homebuilding DVD Workshop

Black & Decker The Complete Guide to Kitchens

Concrete Countertops DIY featuring Fu-Tung Cheng

Taunton - Installing Kitchen Cabinets Made Simple

HomeTime: How-To Guide to Landscaping

Building with Awareness: The Construction of a Hybrid Home

Black & Decker The Complet...y & Stonework (DVD + Book)

Energy Efficient Housing Series R-2000

How-To Guide to Ceramic Tile with Dean Johnson

The How-To Guide to Building a Monolithic Concrete Slab Foundation

HomeTime: How-To Guide to Faux Finishing

Build a Deck with Rick Arnold

Black & Decker The Complete Guide to Masonry & Stonework

Building Green

BRICKFORM - Coloured Concrete Construction Source

The Best of Ask This Old House... Household Projects Done Right

Roundwood Timber Framing: Building Naturally Using Local Resources

That's How We Build a House

El barro, Las manos, La casa

The How-To Guide to Building with Straw Bales, Post and Beam Infill

also You can watch my other helpful: Repair-posts
(if old file-links don't show activity, try copy-paste them to the address bar)

General
Complete name : Tiling Countertops - by Michael Byrne.avi
Format : AVI
Format/Info : Audio Video Interleave
File size : 746 MiB
Duration : 1h 3mn
Overall bit rate : 1 641 Kbps

Video
ID : 0
Format : MPEG-4 Visual
Format profile : Simple@L3
Format settings, BVOP : Yes
Format settings, QPel : No
Format settings, GMC : No warppoints
Format settings, Matrix : Default (H.263)
Codec ID : XVID
Codec ID/Hint : XviD
Duration : 1h 3mn
Bit rate : 1 500 Kbps
Width : 720 pixels
Height : 480 pixels
Display aspect ratio : 3:2
Frame rate : 29.000 fps
Standard : NTSC
Color space : YUV
Chroma subsampling : 4:2:0
Bit depth : 8 bits
Scan type : Progressive
Compression mode : Lossy
Bits/(Pixel*Frame) : 0.150
Stream size : 682 MiB (91%)

Audio
ID : 1
Format : MPEG Audio
Format version : Version 1
Format profile : Layer 3
Mode : Joint stereo
Mode extension : MS Stereo
Codec ID : 55
Codec ID/Hint : MP3
Duration : 1h 3mn
Bit rate mode : Constant
Bit rate : 128 Kbps
Channel(s) : 2 channels
Sampling rate : 44.1 KHz
Compression mode : Lossy
Stream size : 58.0 MiB (8%)
Alignment : Aligned on interleaves
Interleave, duration : 26 ms (0.76 video frame)
Writing library : LAME3.97
Screenshots

Tiling Countertops with Michael Byrne

Tiling Countertops with Michael Byrne

Tiling Countertops with Michael Byrne

Tiling Countertops with Michael Byrne

✅ Exclusive eLearning Videos ParRus-blogadd to bookmarks

Feel free to contact me PM
when links are dead or want any repost

Tiling Countertops with Michael Byrne