Tags
Language
Tags

Black & Decker The Complete Guide to Masonry & Stonework (DVD + Book)

Posted By: ParRus
Black & Decker The Complete Guide to Masonry & Stonework (DVD + Book)

Black & Decker The Complete Guide to Masonry & Stonework (DVD + Book)
DVD5 | English | VIDEO_TS + PDF Workbook | 720 x 480 | MPEG2 ~4918 Kbps | 29.970 fps
PCM | 1536 Kbps | 48.0 KHz | 2 channel | 01:01:54 | 3.09 GB
Genre: eLearning Video / Homebuilding, Repair, Design

No projects offer more aesthetic or financial satisfaction than DIY masonry and stonework projects. Homeowners can routinely save thousands of dollars in labor costs by buying and installing materials that are now readily available for routine purchase. This book includes traditional techniques for laying concrete adapted to the special needs of ordinary homeowners, but also features cutting edge materials and techniques, such as tumbled concrete pavers, acid-etching for colored concrete slabs, and important green paving options, such as rain-garden arroyos and permeable pavers. Several cutting edge projects are included, such as polished concrete countertops and stamped concrete walkways.
A complete outdoor kitchen project, ideal for a patio, is also included. DVD add-on product includes real-time demonstration of crucial techniques, as well as the entire print edition in electronic form.

You can watch other useful Homebuilding videos:

Tiling Floors - by Michael Byrne

Tiling Walls - by Michael Byrne

B&Qtiles - Lessons on Tiling

Drywall: Hanging and Taping on DVD

Tiling Projects 1-2-3

Framing Roofs with Larry Haun

Framing Floors & Stairs (with Larry Haun)

Basic Stairbuilding DVD with Scott Schuttner

BBC Design Rules

Installing Doors and Windows (with Tom Law)

Installing Trim with Craig Savage - Fine Homebuilding DVD Workshop

Framing Walls with Larry Haun - Fine Homebuilding DVD Workshop

Tiling Countertops with Michael Byrne

Black & Decker The Complete Guide to Wiring - 5th Edition

Installing Kitchen Cabinets and Countertops: with Tom Law

Building Decks with Scott Schutter - Fine Homebuilding DVD Workshop

Black & Decker The Complete Guide to Kitchens

Concrete Countertops DIY featuring Fu-Tung Cheng

Taunton - Installing Kitchen Cabinets Made Simple

HomeTime: How-To Guide to Landscaping

Building with Awareness: The Construction of a Hybrid Home

Black & Decker The Complet...y & Stonework (DVD + Book)

Energy Efficient Housing Series R-2000

How-To Guide to Ceramic Tile with Dean Johnson

The How-To Guide to Building a Monolithic Concrete Slab Foundation

HomeTime: How-To Guide to Faux Finishing

Build a Deck with Rick Arnold

Black & Decker The Complete Guide to Masonry & Stonework

Building Green

BRICKFORM - Coloured Concrete Construction Source

The Best of Ask This Old House... Household Projects Done Right

Roundwood Timber Framing: Building Naturally Using Local Resources

That's How We Build a House

El barro, Las manos, La casa

The How-To Guide to Building with Straw Bales, Post and Beam Infill

also You can watch my other helpful: Repair-posts
(if old file-links don't show activity, try copy-paste them to the address bar)

General
Complete name : VTS_13_1.VOB
Format : MPEG-PS
File size : 331 MiB
Duration : 7mn 1s
Overall bit rate mode : Variable
Overall bit rate : 6 585 Kbps

Video
ID : 224 (0xE0)
Format : MPEG Video
Format version : Version 2
Format profile : Main@Main
Format settings, BVOP : Yes
Format settings, Matrix : Custom
Format settings, GOP : M=3, N=15
Duration : 7mn 1s
Bit rate mode : Variable
Bit rate : 4 918 Kbps
Maximum bit rate : 6 000 Kbps
Width : 720 pixels
Height : 480 pixels
Display aspect ratio : 16:9
Frame rate : 29.970 fps
Standard : NTSC
Color space : YUV
Chroma subsampling : 4:2:0
Bit depth : 8 bits
Scan type : Interlaced
Scan order : Top Field First
Compression mode : Lossy
Bits/(Pixel*Frame) : 0.475
Stream size : 247 MiB (75%)
Color primaries : SMPTE 170M
Transfer characteristics : SMPTE 170M
Matrix coefficients : SMPTE 170M

Audio
ID : 189 (0xBD)-160 (0xA0)
Format : PCM
Format settings, Endianness : Big
Format settings, Sign : Signed
Muxing mode : DVD-Video
Duration : 7mn 1s
Bit rate mode : Constant
Bit rate : 1 536 Kbps
Channel(s) : 2 channels
Sampling rate : 48.0 KHz
Bit depth : 16 bits
Stream size : 77.1 MiB (23%)

Menu
Screenshots

Black & Decker The Complete Guide to Masonry & Stonework (DVD + Book)

Black & Decker The Complete Guide to Masonry & Stonework (DVD + Book)

Black & Decker The Complete Guide to Masonry & Stonework (DVD + Book)

Black & Decker The Complete Guide to Masonry & Stonework (DVD + Book)

Black & Decker The Complete Guide to Masonry & Stonework (DVD + Book)

Black & Decker The Complete Guide to Masonry & Stonework (DVD + Book)

Black & Decker The Complete Guide to Masonry & Stonework (DVD + Book)

✅ Exclusive eLearning Videos ParRus-blogadd to bookmarks

Feel free to contact me PM
when links are dead or want any repost

Black & Decker The Complete Guide to Masonry & Stonework (DVD + Book)