Tags
Language
Tags

Building with Awareness: The Construction of a Hybrid Home

Posted By: ParRus
Building with Awareness: The Construction of a Hybrid Home

Building with Awareness: The Construction of a Hybrid Home
DVDRip | English | AVI | 720 x 536 | XviD ~3750 Kbps | 29.970 fps
MP3 | 128 Kbps | 48.0 KHz | 2 channel | 02:25:44 | 3.94 GB
Genre: eLearning Video / Homebuilding, Repair, Design

Constructing a straw bale solar home requires the merging of solar design with alternative building techniques. Books are useful for accessing information on these topics quickly and easily, while videos are a great way to show actual building methods and techniques firsthand. The Building With Awareness DVD/guidebook combination brings you the best of both worlds. The award-winning DVD is inspiring and informative, with over five hours of material on every aspect of building a green home.
The handy reference guidebook complements the DVD, with color photographs, diagrams, suggestions, and step-by-step methods, all condensed into a nuts-and-bolts format. Used together, these two valuable resources provide a visually dynamic and easy-to-understand library of information. Take a front-row seat on the work site, learning from the experts as they notch and stack the straw bales and mix the mud. Learn about foundations, post-and-beam wall framing, roof construction and insulation, interior thermal mass walls for improved efficiency, rainwater cisterns, electrical wiring, and photovoltaic systems. Learn earth-plastering techniques that create beautiful wall finishes. Understand how window placement and other structural elements can help to heat and cool your home and lower your energy bills. See how the structure works as a whole and how both energy efficiency and superb aesthetics can come from the same materials. Ted Owens lives in Corrales, New Mexico, and lectures widely on sustainable design. He is president of Syncronos Design Incorporated, a company that promotes the use of appropriate technology and sustainability in our built environment.

You can watch other useful Homebuilding videos:

Tiling Floors - by Michael Byrne

Tiling Walls - by Michael Byrne

B&Qtiles - Lessons on Tiling

Drywall: Hanging and Taping on DVD

Tiling Projects 1-2-3

Framing Roofs with Larry Haun

Framing Floors & Stairs (with Larry Haun)

Basic Stairbuilding DVD with Scott Schuttner

BBC Design Rules

Installing Doors and Windows (with Tom Law)

Installing Trim with Craig Savage - Fine Homebuilding DVD Workshop

Framing Walls with Larry Haun - Fine Homebuilding DVD Workshop

Tiling Countertops with Michael Byrne

Black & Decker The Complete Guide to Wiring - 5th Edition

Installing Kitchen Cabinets and Countertops: with Tom Law

Building Decks with Scott Schutter - Fine Homebuilding DVD Workshop

Black & Decker The Complete Guide to Kitchens

Concrete Countertops DIY featuring Fu-Tung Cheng

Taunton - Installing Kitchen Cabinets Made Simple

HomeTime: How-To Guide to Landscaping

Building with Awareness: The Construction of a Hybrid Home

Black & Decker The Complet...y & Stonework (DVD + Book)

Energy Efficient Housing Series R-2000

How-To Guide to Ceramic Tile with Dean Johnson

The How-To Guide to Building a Monolithic Concrete Slab Foundation

HomeTime: How-To Guide to Faux Finishing

Build a Deck with Rick Arnold

Black & Decker The Complete Guide to Masonry & Stonework

Building Green

BRICKFORM - Coloured Concrete Construction Source

The Best of Ask This Old House... Household Projects Done Right

Roundwood Timber Framing: Building Naturally Using Local Resources

That's How We Build a House

El barro, Las manos, La casa

The How-To Guide to Building with Straw Bales, Post and Beam Infill

also You can watch my other helpful: Repair-posts
(if old file-links don't show activity, try copy-paste them to the address bar)

General
Complete name : Awareness Straw bulding.avi
Format : AVI
Format/Info : Audio Video Interleave
Format profile : OpenDML
File size : 3.87 GiB
Duration : 2h 22mn
Overall bit rate : 3 889 Kbps
Writing application : VirtualDubMod 1.5.10.2 (build 2540/release)
Writing library : VirtualDubMod build 2540/release

Video
ID : 0
Format : MPEG-4 Visual
Format profile : Advanced Simple@L5
Format settings, BVOP : 3
Format settings, QPel : Yes
Format settings, GMC : 3 warppoints
Format settings, Matrix : Default (H.263)
Muxing mode : Packed bitstream
Codec ID : XVID
Codec ID/Hint : XviD
Duration : 2h 22mn
Bit rate : 3 750 Kbps
Width : 720 pixels
Height : 536 pixels
Display aspect ratio : 4:3
Frame rate : 29.970 fps
Color space : YUV
Chroma subsampling : 4:2:0
Bit depth : 8 bits
Scan type : Progressive
Compression mode : Lossy
Bits/(Pixel*Frame) : 0.324
Stream size : 3.73 GiB (96%)
Writing library : XviD 1.2.0.dev47 (UTC 2006-11-01)

Audio
ID : 1
Format : MPEG Audio
Format version : Version 1
Format profile : Layer 3
Codec ID : 55
Codec ID/Hint : MP3
Duration : 2h 22mn
Bit rate mode : Constant
Bit rate : 128 Kbps
Channel(s) : 2 channels
Sampling rate : 48.0 KHz
Compression mode : Lossy
Stream size : 130 MiB (3%)
Alignment : Aligned on interleaves
Interleave, duration : 33 ms (1.00 video frame)
Interleave, preload duration : 504 ms
Writing library : LAME3.97
Encoding settings : -m s -V 4 -q 2 -lowpass 17 -b 128
Screenshots

Building with Awareness: The Construction of a Hybrid Home

Building with Awareness: The Construction of a Hybrid Home

Building with Awareness: The Construction of a Hybrid Home

Building with Awareness: The Construction of a Hybrid Home

Building with Awareness: The Construction of a Hybrid Home

Building with Awareness: The Construction of a Hybrid Home

✅ Exclusive eLearning Videos ParRus-blogadd to bookmarks

Feel free to contact me PM
when links are dead or want any repost

Building with Awareness: The Construction of a Hybrid Home