Subcategories

Chris Heria - THENX Calisthenics Training

Posted By: ParRus
Chris Heria - THENX Calisthenics Training

Chris Heria - THENX Calisthenics Training
WEBRip | English | MP4 | 1920 x 1080 | AVC ~4500 kbps | 23.976 fps
AAC | 256 Kbps | 48.0 KHz | 2 channels | ~10 hours | 4.2 GB
Genre: eLearning Video / Weight Training, Gymnastics, Cardio, Health

Thenx is designed to teach anyone the secret techniques and knowledge of bodyweight training. These programs have been tested and developed over many years by professional instructors and athletes to provide the most direct and simplistic format to excel in calisthenics fitness and ability.
In these programs you will face challenges, but the skills and abilities that you will develop through proper guided progression is obtainable by anyone from any age or any fitness level. The content provided is designed in short video format with the purpose to convey the techniques and exercises at your own pace, ensuring proper form to be easily repeated, personalizing your workout experience.

also You can find my other: cardio-posts

General
Complete name : Both Legs Back Lever Drop.mp4
Format : MPEG-4
Format profile : Base Media / Version 2
Codec ID : mp42 (mp42/mp41/isom/avc1)
File size : 12.6 MiB
Duration : 22 s 357 ms
Overall bit rate mode : Variable
Overall bit rate : 4 724 kb/s
Encoded date : UTC 2017-02-28 20:58:30
Tagged date : UTC 2017-02-28 20:58:30

Video
ID : 1
Format : AVC
Format/Info : Advanced Video Codec
Format profile : High@L4
Format settings : CABAC / 4 Ref Frames
Format settings, CABAC : Yes
Format settings, RefFrames : 4 frames
Codec ID : avc1
Codec ID/Info : Advanced Video Coding
Duration : 22 s 355 ms
Bit rate : 4 500 kb/s
Width : 1 920 pixels
Height : 1 080 pixels
Display aspect ratio : 16:9
Frame rate mode : Constant
Frame rate : 23.976 (24000/1001) FPS
Color space : YUV
Chroma subsampling : 4:2:0
Bit depth : 8 bits
Scan type : Progressive
Bits/(Pixel*Frame) : 0.091
Stream size : 11.9 MiB (94%)
Writing library : x264 core 148 r10 b97ae06
Encoding settings : cabac=1 / ref=4 / deblock=1:0:0 / analyse=0x3:0x113 / me=hex / subme=8 / psy=1 / psy_rd=1.00:0.00 / mixed_ref=1 / me_range=16 / chroma_me=1 / trellis=2 / 8x8dct=1 / cqm=0 / deadzone=21,11 / fast_pskip=1 / chroma_qp_offset=-2 / threads=34 / lookahead_threads=5 / sliced_threads=0 / nr=0 / decimate=1 / interlaced=0 / bluray_compat=0 / stitchable=1 / constrained_intra=0 / bframes=3 / b_pyramid=2 / b_adapt=1 / b_bias=0 / direct=3 / weightb=1 / open_gop=0 / weightp=2 / keyint=infinite / keyint_min=23 / scenecut=40 / intra_refresh=0 / rc_lookahead=50 / rc=2pass / mbtree=1 / bitrate=4500 / ratetol=1.0 / qcomp=0.60 / qpmin=5 / qpmax=69 / qpstep=4 / cplxblur=20.0 / qblur=0.5 / vbv_maxrate=4950 / vbv_bufsize=13500 / nal_hrd=none / filler=0 / ip_ratio=1.40 / aq=1:1.00
Encoded date : UTC 2017-02-28 20:58:30
Tagged date : UTC 2017-02-28 20:58:30
Color range : Limited
Color primaries : BT.709
Transfer characteristics : BT.709
Matrix coefficients : BT.709

Audio
ID : 2
Format : AAC
Format/Info : Advanced Audio Codec
Format profile : LC
Codec ID : mp4a-40-2
Duration : 22 s 357 ms
Bit rate mode : Variable
Bit rate : 256 kb/s
Channel(s) : 2 channels
Channel positions : Front: L R
Sampling rate : 48.0 kHz
Frame rate : 46.875 FPS (1024 SPF)
Compression mode : Lossy
Stream size : 699 KiB (5%)
Encoded date : UTC 2017-02-28 20:58:30
Tagged date : UTC 2017-02-28 20:58:30
Screenshots

Chris Heria - THENX Calisthenics Training

Chris Heria - THENX Calisthenics Training

Chris Heria - THENX Calisthenics Training

Chris Heria - THENX Calisthenics Training

Chris Heria - THENX Calisthenics Training

✅ Exclusive eLearning Videos ParRus-blogadd to bookmarks
Feel free to contact me PM
when links are dead or want any repost

Chris Heria - THENX Calisthenics Training