The Apprentice S13E13

Posted By: Tavaz
1080p (FullHD) / HDTV IMDb
The Apprentice S13E13

The Apprentice S13E13
HDTV | MKV | 1920x1080 | English | H264 @ 4264 kbps | AC-3 @ 192 kbps | 58 min 57 s | 1.87 GiB

British version of the reality competitions series that sees young entrepreneurs compete in several business tasks, attempting to survive the weekly firings in order to become the business partner of one of the most successful businessmen.

caa83da04a2541a8940671859217f2b3.mkv (1.9 GB)



General
Complete name : ./caa83da04a2541a8940671859217f2b3.mkv
Format : Matroska
Format version : Version 4 / Version 2
File size : 1.87 GiB
Duration : 58 min 57 s
Overall bit rate : 4 547 kb/s
Encoded date : UTC 2010-02-22 21:41:29
Writing application : no_variable_data
Writing library : no_variable_data
Tool : PLUTONiUM RLS Encoder v10.2

Video
ID : 1
Format : AVC
Format/Info : Advanced Video Codec
Format profile : High@L4
Format settings : CABAC / 4 Ref Frames
Format settings, CABAC : Yes
Format settings, RefFrames : 4 frames
Codec ID : V_MPEG4/ISO/AVC
Duration : 58 min 57 s
Bit rate : 4 264 kb/s
Width : 1 920 pixels
Height : 1 080 pixels
Display aspect ratio : 16:9
Frame rate mode : Constant
Frame rate : 25.000 FPS
Standard : Component
Color space : YUV
Chroma subsampling : 4:2:0
Bit depth : 8 bits
Scan type : MBAFF
Bits/(Pixel*Frame) : 0.082
Stream size : 1.76 GiB (94%)
Default : Yes
Forced : No
Color range : Limited
Color primaries : BT.709
Transfer characteristics : BT.709
Matrix coefficients : BT.709
Statistics Tags Issue : no_variable_data 1970-01-01 00:00:00 / no_variable_data 2010-02-22 21:41:29
FromStats_BitRate : 4352815
FromStats_Duration : 00:58:57.280000000
FromStats_FrameCount : 89264
FromStats_StreamSize : 1924640783

Audio
ID : 2
Format : AC-3
Format/Info : Audio Coding 3
Format settings, Endianness : Big
Codec ID : A_AC3
Duration : 58 min 57 s
Bit rate mode : Constant
Bit rate : 192 kb/s
Channel(s) : 2 channels
Channel positions : Front: L R
Sampling rate : 48.0 kHz
Frame rate : 31.250 FPS (1536 SPF)
Bit depth : 16 bits
Compression mode : Lossy
Stream size : 81.0 MiB (4%)
Language : English
Service kind : Complete Main
Default : Yes
Forced : No
Statistics Tags Issue : no_variable_data 1970-01-01 00:00:00 / no_variable_data 2010-02-22 21:41:29
FromStats_BitRate : 192000
FromStats_Duration : 00:58:57.280000000
FromStats_FrameCount : 110540
FromStats_StreamSize : 84894720





The Apprentice S13E13


The Apprentice S13E13


The Apprentice S13E13


The Apprentice S13E13


The Apprentice S13E13

All episodes