The Apprentice S13E13

Posted By: Tavaz
SD / WEB-DL IMDb
The Apprentice S13E13

The Apprentice S13E13
WEB-DL | MOV | 704x396 | English | H264 @ 824 kbps | AAC @ 319 kbps | 58 min 58 s | 484 MiB

British version of the reality competitions series that sees young entrepreneurs compete in several business tasks, attempting to survive the weekly firings in order to become the business partner of one of the most successful businessmen.

The.Apprentice.UK.S13E13.Why.I.Fired.Them.WEB-DL.x264-JIVE.mp4 (483.6 MB)



General
Complete name : ./The.Apprentice.UK.S13E13.Why.I.Fired.Them.WEB-DL.x264-JIVE.mp4
Format : MPEG-4
Format profile : Base Media
Codec ID : isom (isom/iso2/avc1/mp41)
File size : 484 MiB
Duration : 58 min 58 s
Overall bit rate mode : Variable
Overall bit rate : 1 147 kb/s
Collection : The Apprentice: Series 13
Season : 13
Album : The Apprentice: Series 13
Album/Performer : BBC TV
Part : 13
Part/Position : 13
Track name : The Apprentce Uk S13E13 I
Track name/Position : 13
Grouping : Talent Shows,Reality,Factual,Entertainment
Performer : BBC One
Composer : BBC iPlayer
Genre : Talent Shows
ContentType : TV Show
Description : Lord Sugar looks back at the candidates who didn't make it to the final.
Recorded date : UTC 2017-12-14 20:00:00
Tagged date : UTC 2017-12-14 21:11:56
Writing application : Lavf57.83.100
Copyright : 2017 British Broadcasting Corporation, all rights reserved
Cover : Yes
Lyrics : A look back at candidates from this year's series of The Apprentice who fell before the final hurdle. They redesigned five-star hotel rooms in a shade of trifle, sang at a Wembley FA Cup final, programmed robots to 'downward dog' and trained dogs to do a hoedown. / / With the help of some previously unseen boardroom insights, Lord Sugar leads viewers through the best and worst decisions made by the candidates. He looks back on the bust-ups in the boardroom and explains how he came to decide who should be fired. / / EPISODE / http://www.bbc.co.uk/iplayer/episode/b09jczr8 / / SERIES / http://www.bbc.co.uk/programmes/p05dm8j8
Comment : {name}
LongDescription : A look back at candidates from this year's series of The Apprentice who fell before the final hurdle. They redesigned five-star hotel rooms in a shade of trifle, sang at a Wembley FA Cup final, programmed robots to 'downward dog' and trained dogs to do a hoedown. / / With the help of some previously unseen boardroom insights, Lord Sugar leads viewers through the best and worst decisions made by the candidates. He looks back on the bust-ups in the boardroom and explains how he came to decide who should be fired.
Part_ID : s13e13
TVNetworkName : BBC One

Video
ID : 1
Format : AVC
Format/Info : Advanced Video Codec
Format profile : Main@L3
Format settings : CABAC / 4 Ref Frames
Format settings, CABAC : Yes
Format settings, RefFrames : 4 frames
Format settings, GOP : M=8, N=96
Codec ID : avc1
Codec ID/Info : Advanced Video Coding
Duration : 58 min 58 s
Bit rate : 824 kb/s
Width : 704 pixels
Height : 396 pixels
Display aspect ratio : 16:9
Frame rate mode : Constant
Frame rate : 25.000 FPS
Color space : YUV
Chroma subsampling : 4:2:0
Bit depth : 8 bits
Scan type : Progressive
Bits/(Pixel*Frame) : 0.118
Stream size : 348 MiB (72%)
Color range : Limited
Color primaries : BT.709
Transfer characteristics : BT.709
Matrix coefficients : BT.709

Audio
ID : 2
Format : AAC
Format/Info : Advanced Audio Codec
Format profile : LC
Codec ID : mp4a-40-2
Duration : 58 min 58 s
Bit rate mode : Variable
Bit rate : 320 kb/s
Channel(s) : 2 channels
Channel positions : Front: L R
Sampling rate : 48.0 kHz
Frame rate : 46.875 FPS (1024 SPF)
Compression mode : Lossy
Stream size : 134 MiB (28%)
Language : English
Default : Yes
Alternate group : 1





The Apprentice S13E13


The Apprentice S13E13


The Apprentice S13E13


The Apprentice S13E13


The Apprentice S13E13

All episodes