The Apprentice S13E14

Posted By: Tavaz
720p (HD) / HDTV IMDb
The Apprentice S13E14

The Apprentice S13E14
HDTV | MKV | 1280x720 | English | H264 @ 1899 kbps | AC-3 @ 192 kbps | 1 h 0 min | 906 MiB

British version of the reality competitions series that sees young entrepreneurs compete in several business tasks, attempting to survive the weekly firings in order to become the business partner of one of the most successful businessmen.

3ff853d878f34502b7d19347de35f00d.mkv (906.3 MB)



General
Complete name : ./3ff853d878f34502b7d19347de35f00d.mkv
Format : Matroska
Format version : Version 4 / Version 2
File size : 906 MiB
Duration : 1 h 0 min
Overall bit rate : 2 094 kb/s
Encoded date : UTC 2017-12-17 22:16:36
Writing application : TV_Tool! Ver:Funzies \o/(2.5)
Writing library : yellow:p-x264.exe + Dec 2017

Video
ID : 1
Format : AVC
Format/Info : Advanced Video Codec
Format profile : High@L4.1
Format settings : CABAC / 5 Ref Frames
Format settings, CABAC : Yes
Format settings, RefFrames : 5 frames
Codec ID : V_MPEG4/ISO/AVC
Duration : 1 h 0 min
Bit rate : 1 900 kb/s
Width : 1 280 pixels
Height : 720 pixels
Display aspect ratio : 16:9
Frame rate mode : Constant
Frame rate : 25.000 FPS
Color space : YUV
Chroma subsampling : 4:2:0
Bit depth : 8 bits
Scan type : Progressive
Bits/(Pixel*Frame) : 0.082
Stream size : 822 MiB (91%)
Writing library : x264 core 152 r2851 ba24899
Encoding settings : cabac=1 / ref=5 / deblock=1:-2:-2 / analyse=0x3:0x113 / me=umh / subme=9 / psy=1 / psy_rd=1.00:0.00 / mixed_ref=1 / me_range=16 / chroma_me=1 / trellis=2 / 8x8dct=1 / cqm=0 / deadzone=21,11 / fast_pskip=1 / chroma_qp_offset=-2 / threads=12 / lookahead_threads=1 / sliced_threads=0 / nr=0 / decimate=1 / interlaced=0 / bluray_compat=0 / constrained_intra=0 / bframes=3 / b_pyramid=2 / b_adapt=1 / b_bias=0 / direct=3 / weightb=1 / open_gop=0 / weightp=2 / keyint=250 / keyint_min=25 / scenecut=40 / intra_refresh=0 / rc_lookahead=50 / rc=crf / mbtree=1 / crf=20.0 / qcomp=0.60 / qpmin=0 / qpmax=69 / qpstep=4 / ip_ratio=1.40 / aq=1:1.00
Language : English
Default : Yes
Forced : No
Color range : Limited
Matrix coefficients : BT.709

Audio
ID : 2
Format : AC-3
Format/Info : Audio Coding 3
Format settings, Endianness : Big
Codec ID : A_AC3
Duration : 1 h 0 min
Bit rate mode : Constant
Bit rate : 192 kb/s
Channel(s) : 2 channels
Channel positions : Front: L R
Sampling rate : 48.0 kHz
Frame rate : 31.250 FPS (1536 SPF)
Bit depth : 16 bits
Compression mode : Lossy
Delay relative to video : -11 ms
Stream size : 83.1 MiB (9%)
Language : English
Service kind : Complete Main
Default : Yes
Forced : No





The Apprentice S13E14


The Apprentice S13E14


The Apprentice S13E14


The Apprentice S13E14


The Apprentice S13E14

All episodes