The Apprentice S13E14

Posted By: Tavaz
1080p (FullHD) / HDTV IMDb
The Apprentice S13E14

The Apprentice S13E14
HDTV | MKV | 1920x1080 | English | H264 @ 3847 kbps | AC-3 @ 192 kbps | 1 h 0 min | 1.71 GiB

British version of the reality competitions series that sees young entrepreneurs compete in several business tasks, attempting to survive the weekly firings in order to become the business partner of one of the most successful businessmen.

95fecd2b499f4e47af32a6c93fb5c135.mkv (1.7 GB)



General
Complete name : ./95fecd2b499f4e47af32a6c93fb5c135.mkv
Format : Matroska
Format version : Version 4 / Version 2
File size : 1.71 GiB
Duration : 1 h 0 min
Overall bit rate : 4 042 kb/s
Encoded date : UTC 2017-12-17 23:16:07
Writing application : TV_Tool! Ver:Funzies \o/(2.5)
Writing library : yellow:p-x264.exe + Dec 2017

Video
ID : 1
Format : AVC
Format/Info : Advanced Video Codec
Format profile : High@L4
Format settings : CABAC / 4 Ref Frames
Format settings, CABAC : Yes
Format settings, RefFrames : 4 frames
Format settings, GOP : M=8, N=24
Codec ID : V_MPEG4/ISO/AVC
Duration : 1 h 0 min
Bit rate : 3 847 kb/s
Width : 1 920 pixels
Height : 1 080 pixels
Display aspect ratio : 16:9
Frame rate mode : Constant
Frame rate : 25.000 FPS
Standard : Component
Color space : YUV
Chroma subsampling : 4:2:0
Bit depth : 8 bits
Scan type : MBAFF
Scan type, store method : Separated fields
Scan order : Top Field First
Bits/(Pixel*Frame) : 0.074
Stream size : 1.63 GiB (95%)
Language : English
Default : Yes
Forced : No
Color range : Limited
Color primaries : BT.709
Transfer characteristics : BT.709
Matrix coefficients : BT.709

Audio
ID : 2
Format : AC-3
Format/Info : Audio Coding 3
Format settings, Endianness : Big
Codec ID : A_AC3
Duration : 1 h 0 min
Bit rate mode : Constant
Bit rate : 192 kb/s
Channel(s) : 2 channels
Channel positions : Front: L R
Sampling rate : 48.0 kHz
Frame rate : 31.250 FPS (1536 SPF)
Bit depth : 16 bits
Compression mode : Lossy
Stream size : 83.1 MiB (5%)
Language : English
Service kind : Complete Main
Default : Yes
Forced : No





The Apprentice S13E14


The Apprentice S13E14


The Apprentice S13E14


The Apprentice S13E14


The Apprentice S13E14

All episodes