Tags
Language
Tags

101 Strings Orchestra - Play a Program Of Duke Ellington Compositions (1974/2021) [Official Digital Download 24/96]

Posted By:
101 Strings Orchestra - Play a Program Of Duke Ellington Compositions (1974/2021) [Official Digital Download 24/96]

101 Strings Orchestra - Play a Program Of Duke Ellington Compositions (1974/2021) [Official Digital Download 24/96]
FLAC (tracks) 24-bit/96 kHz | Front Cover | Time - 39:39 minutes | 761 MB
Pop, Lounge | Label: Alshire, Official Digital Download

101 Strings Orchestra was a brand for a highly successful easy listening symphonic music organization, with a discography exceeding 150 albums and a creative lifetime of around 30 years beginning in 1957. 101 Strings had a trademark sound, focusing on melody with a laid-back ambiance most often featuring strings. Their LPs were individualized by the slogan "The Sound of Magnificence", a puffy cloud logo and sepia-toned photo of the orchestra. The 101 Strings orchestra included 124 string instruments, and was conducted by Wilhelm Stephan. The orchestra's famous official photograph was taken in the Musikhalle Hamburg.

TRACKLIST

1. 101 Strings Orchestra - Sophisticated Lady (2021 Remaster)
2. Paul Griffin - Solitude (2015 Remaster)
3. 101 Strings Orchestra - Mood Indigo (2014 Remaster)
4. 101 Strings Orchestra - Satin Doll (2021 Remaster)
5. 101 Strings Orchestra - Caravan (2021 Remaster)
6. 101 Strings Orchestra - Blue Twilight (2014 Remaster)
7. 101 Strings Orchestra - Sweet Hurtin' Blues (2021 Remaster)
8. 101 Strings Orchestra - Indigo Dream (2021 Remaster)
9. 101 Strings Orchestra - Symphony for Blues (2014 Remaster)
10. 101 Strings Orchestra - Comin' Home (2015 Remaster)

foobar2000 1.6.2 / Dynamic Range Meter 1.1.1
log date: 2021-09-10 07:56:42

––––––––––––––––––––––––––––––––––––––––
Analyzed: 101 Strings Orchestra / Play a Program Of Duke Ellington Compositions and Other Selections in Tribute (1-9)
Paul Griffin / Play a Program Of Duke Ellington Compositions and Other Selections in Tribute (10)
––––––––––––––––––––––––––––––––––––––––

DR Peak RMS Duration Track
––––––––––––––––––––––––––––––––––––––––
DR10 -0.30 dB -14.74 dB 3:06 01-Sophisticated Lady (2021 Remaster)
DR11 -1.01 dB -16.04 dB 3:51 03-Mood Indigo (2014 Remaster)
DR11 -0.63 dB -14.72 dB 4:07 04-Satin Doll (2021 Remaster)
DR12 -0.30 dB -16.82 dB 3:36 05-Caravan (2021 Remaster)
DR10 -3.51 dB -16.77 dB 3:45 06-Blue Twilight (2014 Remaster)
DR12 -0.30 dB -16.40 dB 4:36 07-Sweet Hurtin' Blues (2021 Remaster)
DR11 -0.50 dB -14.66 dB 3:21 08-Indigo Dream (2021 Remaster)
DR12 -1.00 dB -15.43 dB 7:01 09-Symphony for Blues (2014 Remaster)
DR12 -1.00 dB -17.14 dB 3:16 10-Comin' Home (2015 Remaster)
DR10 -1.00 dB -15.57 dB 3:07 02-Solitude (2015 Remaster)
––––––––––––––––––––––––––––––––––––––––

Number of tracks: 10
Official DR value: DR11

Samplerate: 96000 Hz
Channels: 2
Bits per sample: 24
Bitrate: 2810 kbps
Codec: FLAC
================================================================================



Thanks to the Original customer.