7 Mladih - Jos Ne Svice Rujna Zora (1985) RTB 2113937

Posted By: Ljubo44
7 Mladih - Jos Ne Svice Rujna Zora (1985) RTB 2113937

7 Mladih - Jos Ne Svice Rujna Zora
Vinyl rip in 24bit / 96kHz | FLAC+Full artwork 600dpi | 735 & 272 MB
Folk/YU | 1985 | PGPRTB LP 2113937 | filepost, uploaded

7 Mladih, 5-th LP with their ensemble and string orchestra by Janika Balaž


7 Mladih - Jos Ne Svice Rujna Zora (1985) RTB 2113937


Tracks:
A1 - Jos Ne Svice Rujna Zora
(narodna - Lj.Milić)
A2 - Kafana Pod Lipom
(Z.Raković - J.Balaž - Z.Raković)
A3 - Pece Cica Rakiju
(narodna - Lj.Milić)
A4 - Bolesno Mi Lezi
(trad. - Lj.Milić)
A5 - Vu Plavem Trnaci
(narodna - J.Balaž)
B1 - Ne Placi Duso
(G.Šaulić - Lj.Milić - G.Šaulić)
B2 - Vec Odavno Spremam Svog Mrkova
(Z.Bogdan - J.Balaž - Z.Bogdan)
B3 - Fijakerist
(S.Vukosavljev - J.Balaž - V.Subotić)
B4 - Lepa Janja (Ribara Starog Kci)
(trad. - I.Genić)
B5 - Osam Tamburasa
(M.Vučetić - J.Balaž - R.Soć/Z.Bogdan)

℗ 1985 PGPRTB
matrix: A2,B2,3,5 recorded in studio "M" Radio Novi Sad
Others recorded and remixed in studio VI Radio Beograd

LP by: DSIM
24-bit/96kHz transfer by Ljubo44
Decembar 28, ‎2012
Vinyl condition: 5+
Runout A: 2113937 A 14885
Runout B: 2113937 B 14885
foobar2000 1.2.2 / Dynamic Range Meter 1.1.1
log date: 2013-01-21 01:24:05

––––––––––––––––––––––––––––––––––––––––
Analyzed: 7 Mladih / Jos Ne Svice Rujna Zora
––––––––––––––––––––––––––––––––––––––––

DR Peak RMS Duration Track
––––––––––––––––––––––––––––––––––––––––
DR9 -0.24 dB -12.24 dB 3:41 01-Jos Ne Svice Rujna Zora
DR11 -0.15 dB -13.89 dB 4:18 02-Kafana Pod Lipom
DR11 -0.27 dB -13.23 dB 1:43 03-Pece Cica Rakiju
DR10 -0.18 dB -13.07 dB 3:16 04-Bolesno Mi Lezi
DR9 -0.18 dB -11.94 dB 2:21 05-Vu Plavem Trnaci
DR10 -0.14 dB -11.99 dB 3:37 06-Ne Placi Duso
DR12 -0.10 dB -14.69 dB 4:32 07-Vec Odavno Spremam Svog Mrkova
DR11 -0.31 dB -14.65 dB 2:54 08-Fijakerist
DR10 -0.28 dB -13.31 dB 3:16 09-Lepa Janja (Ribara Starog Kci)
DR10 -0.15 dB -12.11 dB 3:08 10-Osam Tamburasa
––––––––––––––––––––––––––––––––––––––––

Number of tracks: 10
Official DR value: DR10

Samplerate: 96000 Hz
Channels: 2
Bits per sample: 24
Bitrate: 2835 kbps
Codec: FLAC
================================================================================

24-bit/96kHz Vinyl Rip by Ljubo44
Decembar 28, ‎2012

RCM Record master 1
Technics SL 1210 DD TT
Ortofon LMB 12 Cartrige
Denon DRA-565 RD Preamp
EDIROL FA 66 Fire Wire Audio Interface
WaveLab 6.1 recording software
Izotope RX 2.10 for resampling and dither (noise shaping: light, Dither amount: none)
foobar2000 for FLAC 8 conversion

Click Repair - Manual
Vinyl condition: 5+

Runout A: 2113937 A 14885
Runout B: 2113937 B 14885
24/96 | FLAC | DR10 | Scan 600 dpi | 2% recovery volume

filepost
7Ml85RTB2113937

uploaded
7Ml85RTB2113937

16/44 | FLAC | DR10 | Scan 600 dpi | 2% recovery volume

filepost
7Ml85RTB2113937_16b

uploaded
7Ml85RTB2113937

Pass: ljubo