Tags
Language
Tags

AC/DC - Let There Be Rock (Remastered) (1977/2020) [Official Digital Download 24/96]

Posted By: pyatak
AC/DC - Let There Be Rock (Remastered) (1977/2020) [Official Digital Download 24/96]

AC/DC - Let There Be Rock (Remastered) (1977/2020) [Official Digital Download 24/96]
FLAC (tracks) 24-bit/96 kHz | Front Cover | Time - 40:52 minutes | 933 MB
Hard Rock | Label: Columbia, Official Digital Download

This album came screaming out of Australia in 1977! AC/DC's first stab at a "real" album - a break from the early "novelty" approach to songwriting and a move to the more focused album-oriented view that the band would perfect. Includes the classics Let There Be Rock; Bad Boy Boogie; Whole Lotta Rosie , and more!

Immediately after hearing the title of the record, you know what you're in for, and AC/DC do not disappoint. Let There Be Rock is a treat for your ears, it has eight consistent tracks, all of which are great rockers that you would expect from AC/DC.

Let There Be Rock, the fourth AC/DC album - and first to see simultaneous international release - is as lean and mean as the original line-up ever got. Shaved down to the bone, there are only eight tracks, giving this a lethal efficiency even with a couple of meandering jams. This is a high-voltage, brutal record, filled with "Bad Boy Boogie."

It has a bit of a bluesier edge than other AC/DC Albums, but this is truly the sound of the band reaching its peak. There's the near majesty of "Let There Be Rock", there's Bon Scott acknowledging with a wink that "Hell Ain't A Bad Place To Be", and then there's the monumental "Whole Lotta Rosie".

Let There Be Rock is pure AC/DC in a nutshell - it's sweaty, dirty, nasty rock, music that is played to the last call and beyond, and they've rarely done that kind of rock better than they did here.

"Let There Be Rock, the fourth AC/DC album – and first to see simultaneous international release – is as lean and mean as the original lineup ever got. Shaved down to the bone – there are only eight tracks, giving this a lethal efficiency even with a couple of meandering jams – this is a high-voltage, brutal record, filled with "Bad Boy Boogie." It has a bit of a bluesier edge than other AC/DC records, but this is truly the sound of the band reaching its peak. There's the near majesty of "Let There Be Rock," there's Bon Scott acknowledging with a wink that "Hell Ain't a Bad Place to Be," and then there's the monumental "Whole Lotta Rosie." Which gets down to a key thing about AC/DC. If Led Zeppelin were celebrating a "Whole Lotta Love," AC/DC got down to the grimy details in their leering tribute to the joys of sex with a plus-sized woman. And that's AC/DC's allure in a nutshell – it's sweaty, dirty, nasty rock, music that is played to the last call and beyond, and they've rarely done that kind of rock better than they did here." (Stephen Thomas Erlewine, AMG)

TRACKLIST

1. AC/DC - Go Down
2. AC/DC - Dog Eat Dog
3. AC/DC - Let There Be Rock
4. AC/DC - Bad Boy Boogie
5. AC/DC - Problem Child
6. AC/DC - Overdose
7. AC/DC - Hell Ain't a Bad Place to Be
8. AC/DC - Whole Lotta Rosie

foobar2000 1.3.16 / Dynamic Range Meter 1.1.1
log date: 2020-07-23 08:25:09

––––––––––––––––––––––––––––––––––––––––
Analyzed: AC/DC / Let There Be Rock (Remastered)
––––––––––––––––––––––––––––––––––––––––

DR Peak RMS Duration Track
––––––––––––––––––––––––––––––––––––––––
DR7 -0.70 dB -9.30 dB 5:31 01-Go Down
DR7 -0.70 dB -8.79 dB 3:35 02-Dog Eat Dog
DR6 -0.70 dB -8.23 dB 6:07 03-Let There Be Rock
DR7 -0.70 dB -8.79 dB 4:28 04-Bad Boy Boogie
DR7 -0.70 dB -8.76 dB 5:25 05-Problem Child
DR6 -0.70 dB -8.37 dB 6:09 06-Overdose
DR7 -0.70 dB -9.40 dB 4:14 07-Hell Ain't a Bad Place to Be
DR7 -0.70 dB -8.82 dB 5:25 08-Whole Lotta Rosie
––––––––––––––––––––––––––––––––––––––––

Number of tracks: 8
Official DR value: DR7

Samplerate: 96000 Hz
Channels: 2
Bits per sample: 24
Bitrate: 3246 kbps
Codec: FLAC
================================================================================



Thanks to the Original customer.