Tags
Language
Tags
June 2024
Su Mo Tu We Th Fr Sa
26 27 28 29 30 31 1
2 3 4 5 6 7 8
9 10 11 12 13 14 15
16 17 18 19 20 21 22
23 24 25 26 27 28 29
30 1 2 3 4 5 6

Alexander Shelley - Clara, Robert, Johannes: Atmosphere and Mastery (2023) [Official Digital Download 24/96]

Posted By: pyatak
Alexander Shelley - Clara, Robert, Johannes: Atmosphere and Mastery (2023) [Official Digital Download 24/96]

Alexander Shelley - Clara, Robert, Johannes: Atmosphere and Mastery (2023) [Official Digital Download 24/96]
FLAC (tracks) 24-bit/96 kHz | Front Cover | Time - 02:16:40 minutes | 2,27 GB
Classical | Studio Master, Official Digital Download

This is the third of four albums to be released that will form a recording cycle that explores the closely intertwined personal and artistic connections between three musical giants: Clara Schumann, Robert Schumann and Johannes Brahms. Robert Schumann's and Johannes Brahms' symphonies will be paired and combined with Clara Schumann's chamber works and orchestral pieces, including some special gems. "I have always loved these symphonies and saw many links between them. It has always been my dream to record them and release them together. No story of these two composers is complete without Clara, as famous in her lifetime as her husband, and a strong influence on both Robert and Johannes. ?We crafted this vision with Clara Schumann scholar Julie Pedneault-Deslauriers, to combine the symphonies with pieces by Clara in ways that provide an insightful narrative to the intertwined lives and works of these three Romantics." - Alexander Shelley

TRACKLIST

1. Canada's National Arts Centre Orchestra - Symphony No. 3 in E-Flat Major, "Rhenish", Op. 97: I. Lebhaft
2. Canada's National Arts Centre Orchestra - Symphony No. 3 in E-Flat Major, "Rhenish", Op. 97: II. Scherzo
3. Canada's National Arts Centre Orchestra - Symphony No. 3 in E-Flat Major, "Rhenish", Op. 97: III. Nicht schnell
4. Canada's National Arts Centre Orchestra - Symphony No. 3 in E-Flat Major, "Rhenish", Op. 97: IV. Feierlich
5. Canada's National Arts Centre Orchestra - Symphony No. 3 in E-Flat Major, "Rhenish", Op. 97: V. Lebhaft
6. Adrianne Pieczonka - Am Strande
7. Adrianne Pieczonka - An einem Lichten Morgen, Op. 23, No. 2
8. Adrianne Pieczonka - Lorelei
9. Stewart Goodyear - Quatre pièces fugitives, Op. 15: No. 1, Larghetto
10. Stewart Goodyear - Quatre pièces fugitives, Op. 15: No. 2, Un poco agitato
11. Stewart Goodyear - Quatre pièces fugitives, Op. 15: No. 3, Andante espressivo
12. Gabriela Montero - Piano Sonata in G Minor: I. Allegro
13. Gabriela Montero - Piano Sonata in G Minor: II. Adagio
14. Gabriela Montero - Piano Sonata in G Minor: III. Scherzo
15. Gabriela Montero - Piano Sonata in G Minor: IV. Rondo
16. Canada's National Arts Centre Orchestra - Symphony No. 3 in F Major, Op. 90: I. Allegro con brio
17. Canada's National Arts Centre Orchestra - Symphony No. 3 in F Major, Op. 90: II. Andante
18. Canada's National Arts Centre Orchestra - Symphony No. 3 in F Major, Op. 90: III. Poco allegretto
19. Canada's National Arts Centre Orchestra - Symphony No. 3 in F Major, Op. 90: IV. Allegro - Un poco sostenuto
20. Yosuke Kawasaki - Piano Trio in G Minor, Op. 17: I. Allegro moderato
21. Yosuke Kawasaki - Piano Trio in G Minor, Op. 17: II. Scherzo - Tempo di Menuetto
22. Yosuke Kawasaki - Piano Trio in G Minor, Op. 17: III. Andante più animato
23. Yosuke Kawasaki - Piano Trio in G Minor, Op. 17: IV. Allegretto

foobar2000 1.6.2 / Dynamic Range Meter 1.1.1
log date: 2023-03-23 18:24:47

––––––––––––––––––––––––––––––––––––––––
Analyzed: Adrianne Pieczonka / Clara, Robert, Johannes: Atmosphere and Mastery (1-3)
Canada's National Arts Centre Orchestra / Clara, Robert, Johannes: Atmosphere and Mastery (4-12)
Gabriela Montero / Clara, Robert, Johannes: Atmosphere and Mastery (13-16)
Stewart Goodyear / Clara, Robert, Johannes: Atmosphere and Mastery (17-19)
Yosuke Kawasaki / Clara, Robert, Johannes: Atmosphere and Mastery (20-23)
––––––––––––––––––––––––––––––––––––––––

DR Peak RMS Duration Track
––––––––––––––––––––––––––––––––––––––––
DR13 -1.20 dB -20.00 dB 2:32 06-Am Strande
DR14 -1.20 dB -20.05 dB 3:01 07-An einem Lichten Morgen, Op. 23, No. 2
DR13 -1.19 dB -19.51 dB 2:45 08-Lorelei
DR14 -1.00 dB -19.22 dB 9:41 01-Symphony No. 3 in E-Flat Major, "Rhenish", Op. 97: I. Lebhaft
DR14 -1.27 dB -21.72 dB 6:00 02-Symphony No. 3 in E-Flat Major, "Rhenish", Op. 97: II. Scherzo
DR13 -9.66 dB -28.41 dB 5:11 03-Symphony No. 3 in E-Flat Major, "Rhenish", Op. 97: III. Nicht schnell
DR12 -4.25 dB -21.61 dB 5:09 04-Symphony No. 3 in E-Flat Major, "Rhenish", Op. 97: IV. Feierlich
DR13 -0.41 dB -18.34 dB 5:51 05-Symphony No. 3 in E-Flat Major, "Rhenish", Op. 97: V. Lebhaft
DR12 -2.27 dB -19.73 dB 13:30 16-Symphony No. 3 in F Major, Op. 90: I. Allegro con brio
DR14 -4.45 dB -25.13 dB 9:20 17-Symphony No. 3 in F Major, Op. 90: II. Andante
DR15 -4.99 dB -27.19 dB 6:39 18-Symphony No. 3 in F Major, Op. 90: III. Poco allegretto
DR12 -2.23 dB -18.72 dB 9:20 19-Symphony No. 3 in F Major, Op. 90: IV. Allegro - Un poco sostenuto
DR14 -1.11 dB -21.07 dB 9:09 12-Piano Sonata in G Minor: I. Allegro
DR14 -6.17 dB -27.45 dB 2:41 13-Piano Sonata in G Minor: II. Adagio
DR12 -0.01 dB -23.63 dB 2:35 14-Piano Sonata in G Minor: III. Scherzo
DR13 -1.42 dB -19.63 dB 5:59 15-Piano Sonata in G Minor: IV. Rondo
DR12 -6.86 dB -25.55 dB 2:34 09-Quatre pièces fugitives, Op. 15: No. 1, Larghetto
DR13 -3.79 dB -21.95 dB 2:01 10-Quatre pièces fugitives, Op. 15: No. 2, Un poco agitato
DR13 -8.78 dB -27.40 dB 5:25 11-Quatre pièces fugitives, Op. 15: No. 3, Andante espressivo
DR14 -6.43 dB -24.62 dB 9:50 20-Piano Trio in G Minor, Op. 17: I. Allegro moderato
DR12 -11.28 dB -27.29 dB 4:51 21-Piano Trio in G Minor, Op. 17: II. Scherzo - Tempo di Menuetto
DR13 -9.56 dB -27.86 dB 5:19 22-Piano Trio in G Minor, Op. 17: III. Andante più animato
DR15 -3.77 dB -24.06 dB 7:15 23-Piano Trio in G Minor, Op. 17: IV. Allegretto
––––––––––––––––––––––––––––––––––––––––

Number of tracks: 23
Official DR value: DR13

Samplerate: 96000 Hz
Channels: 2
Bits per sample: 24
Bitrate: 2519 kbps
Codec: FLAC
================================================================================



Thanks to the Original customer.