Tags
Language
Tags

Allman Brothers Band - Bear's Sonic Journals (Live at Fillmore East, February 1970 - Deluxe Edition) (2018/2021) [24/96-192]

Posted By: pyatak
Allman Brothers Band - Bear's Sonic Journals (Live at Fillmore East, February 1970 - Deluxe Edition) (2018/2021) [24/96-192]

Allman Brothers Band - Bear's Sonic Journals (Live at Fillmore East, February 1970 - Deluxe Edition) (2018/2021) [24/96-192]
FLAC (tracks) 24-bit/96-192 kHz | Front Cover | Time - 03:53:55 minutes | 6,93 GB
Rock | Studio Master, Official Digital Download

You asked for it, so here it is! The Owsley Stanley Foundation & the Allman Brothers Band are pleased to present Bear’s complete recordings of the Allman Brothers Band at the Fillmore East in February 1970 in CD format. Available only on our website and at the Big House Museum, this Deluxe Edition, 3-CD set will include the already-released compilation CD along with 2 CDs of the source material from all three nights — the complete set of Bear’s Sonic Journals from each show as played on February 11, 13, & 14, 1970, including all three complete versions of the earliest known live concert recordings of “In Memory of Elizabeth Reed.” We also expanded the booklet to include more photos from these historic nights, taken by Bear’s good friend, Amalie Rothschild. The photos include an extremely rare shot of Bear in the soundbooth, up in the balcony overlooking the stage.

TRACKLIST

01. Allman Brothers Band - In Memory of Elizabeth Reed (Bear's Sonic Journals: Live at Fillmore East, 02/14/1970)
02. Allman Brothers Band - Hoochie Coochie Man (Bear's Sonic Journals: Live at Fillmore East, 02/14/1970)
03. Allman Brothers Band - Statesboro Blues (Bear's Sonic Journals: Live at Fillmore East, 02/11/1970)
04. Allman Brothers Band - Trouble No More (Bear's Sonic Journals: Live at Fillmore East, 02/11/1970)
05. Allman Brothers Band - Outskirts of Town (Bear's Sonic Journals: Live at Fillmore East, 02/13-14/1970)
06. Allman Brothers Band - Whipping Post (Bear's Sonic Journals: Live at Fillmore East, 02/14/1970)
07. Allman Brothers Band - Mountain Jam (Bear's Sonic Journals: Live at Fillmore East, 02/14/1970 - 02/13/1970)
08. Allman Brothers Band - In Memory of Elizabeth Reed (Bear's Sonic Journals: Live at Fillmore East, 02/11/1970)
09. Allman Brothers Band - Statesboro Blues (Source) (Bear's Sonic Journals: Live at Fillmore East, 02/11/1970)
10. Allman Brothers Band - Trouble No More (Source) (Bear's Sonic Journals: Live at Fillmore East, 02/11/1970)
11. Allman Brothers Band - Hoochie Coochie Man (Bear's Sonic Journals: Live at Fillmore East, 02/11/1970)
12. Allman Brothers Band - Mountain Jam (Reel Change Gap) (Bear's Sonic Journals: Live at Fillmore East, 02/11/1970)
13. Allman Brothers Band - In Memory of Elizabeth Reed (Bear's Sonic Journals: Live at Fillmore East, 02/13/1970)
14. Allman Brothers Band - Outskirts of Town (End Cut) (Bear's Sonic Journals: Live at Fillmore East, 02/13/70)
15. Allman Brothers Band - Mountain Jam (Start Cut) (Bear's Sonic Journals: Live at Fillmore East, 02/13/70)
16. Allman Brothers Band - In Memory of Elizabeth Reed (Source) (Bear's Sonic Journals: Live at Fillmore East, 02/14/70)
17. Allman Brothers Band - Hoochie Coochie Man (Source) (Bear's Sonic Journals: Live at Fillmore East, 02/14/70)
18. Allman Brothers Band - Outskirts of Town (Reel Change Gap) (Bear's Sonic Journals: Live at Fillmore East, 02/14/70)
19. Allman Brothers Band - Whipping Post (Source) (Bear's Sonic Journals: Live at Fillmore East, 02/14/70)
20. Allman Brothers Band - Mountain Jam (Start Cut, No. 2) (Bear's Sonic Journals: Live at Fillmore East, 02/14/70)

foobar2000 1.6.2 / Dynamic Range Meter 1.1.1
log date: 2021-06-19 08:25:50

––––––––––––––––––––––––––––––––––––––––
Analyzed: Allman Brothers Band / Bear's Sonic Journals (Live at Fillmore East, February 1970 - Deluxe Edition)
––––––––––––––––––––––––––––––––––––––––

DR Peak RMS Duration Track
––––––––––––––––––––––––––––––––––––––––
DR14 -0.04 dB -17.07 dB 9:22 01-In Memory of Elizabeth Reed (Bear's Sonic Journals: Live at Fillmore East, 02/14/1970)
DR14 -0.70 dB -17.41 dB 6:05 02-Hoochie Coochie Man (Bear's Sonic Journals: Live at Fillmore East, 02/14/1970)
DR10 -1.06 dB -13.78 dB 4:17 03-Statesboro Blues (Bear's Sonic Journals: Live at Fillmore East, 02/11/1970)
DR12 -1.01 dB -15.99 dB 4:12 04-Trouble No More (Bear's Sonic Journals: Live at Fillmore East, 02/11/1970)
DR14 -0.74 dB -17.67 dB 8:30 05-Outskirts of Town (Bear's Sonic Journals: Live at Fillmore East, 02/13-14/1970)
DR15 -0.20 dB -17.59 dB 8:11 06-Whipping Post (Bear's Sonic Journals: Live at Fillmore East, 02/14/1970)
DR15 -0.58 dB -18.95 dB 30:46 07-Mountain Jam (Bear's Sonic Journals: Live at Fillmore East, 02/14/1970 - 02/13/1970)
DR10 -0.23 dB -14.44 dB 11:58 08-In Memory of Elizabeth Reed (Bear's Sonic Journals: Live at Fillmore East, 02/11/1970)
DR10 -1.26 dB -13.48 dB 4:17 09-Statesboro Blues (Source) (Bear's Sonic Journals: Live at Fillmore East, 02/11/1970)
DR12 -0.60 dB -15.74 dB 4:42 10-Trouble No More (Source) (Bear's Sonic Journals: Live at Fillmore East, 02/11/1970)
DR11 -0.90 dB -14.59 dB 4:35 11-Hoochie Coochie Man (Bear's Sonic Journals: Live at Fillmore East, 02/11/1970)
DR13 -0.20 dB -16.00 dB 18:48 12-Mountain Jam (Reel Change Gap) (Bear's Sonic Journals: Live at Fillmore East, 02/11/1970)
DR14 -0.23 dB -17.37 dB 7:50 13-In Memory of Elizabeth Reed (Bear's Sonic Journals: Live at Fillmore East, 02/13/1970)
DR14 -0.20 dB -17.28 dB 7:48 14-Outskirts of Town (End Cut) (Bear's Sonic Journals: Live at Fillmore East, 02/13/70)
DR14 -0.80 dB -18.43 dB 18:29 15-Mountain Jam (Start Cut) (Bear's Sonic Journals: Live at Fillmore East, 02/13/70)
DR14 -0.04 dB -17.09 dB 9:26 16-In Memory of Elizabeth Reed (Source) (Bear's Sonic Journals: Live at Fillmore East, 02/14/70)
DR13 -0.50 dB -16.58 dB 5:08 17-Hoochie Coochie Man (Source) (Bear's Sonic Journals: Live at Fillmore East, 02/14/70)
DR16 -0.89 dB -19.83 dB 7:57 18-Outskirts of Town (Reel Change Gap) (Bear's Sonic Journals: Live at Fillmore East, 02/14/70)
DR15 -0.20 dB -17.87 dB 8:11 19-Whipping Post (Source) (Bear's Sonic Journals: Live at Fillmore East, 02/14/70)
––––––––––––––––––––––––––––––––––––––––

Number of tracks: 19
Official DR value: DR13

Samplerate: 192000 Hz
Channels: 2
Bits per sample: 24
Bitrate: 5082 kbps
Codec: FLAC
================================================================================

foobar2000 1.6.2 / Dynamic Range Meter 1.1.1
log date: 2021-06-19 08:22:11

––––––––––––––––––––––––––––––––––––––––
Statistics for: 20-Mountain Jam (Start Cut, No. 2) (Bear's Sonic Journals: Live at Fillmore East, 02/14/70)
Number of samples: 201734720
Duration: 35:01
––––––––––––––––––––––––––––––––––––––––

Left Right

Peak Value: -0.58 dB –- -0.53 dB
Avg RMS: -20.66 dB –- -19.06 dB
DR channel: 16.90 dB –- 16.07 dB
––––––––––––––––––––––––––––––––––––––––

Official DR Value: DR16

Samplerate: 96000 Hz
Channels: 2
Bits per sample: 24
Bitrate: 2944 kbps
Codec: FLAC
================================================================================


Thanks to the Original customer.