Tags
Language
Tags
February 2023
Su Mo Tu We Th Fr Sa
29 30 31 1 2 3 4
5 6 7 8 9 10 11
12 13 14 15 16 17 18
19 20 21 22 23 24 25
26 27 28 1 2 3 4

Amanda Forsythe - Heavenly Bach - Arias & Cantatas of J.S. Bach (2022) [Official Digital Download 24/96]

Posted By: pyatak
Amanda Forsythe - Heavenly Bach - Arias & Cantatas of J.S. Bach (2022) [Official Digital Download 24/96]

Amanda Forsythe - Heavenly Bach - Arias & Cantatas of J.S. Bach (2022) [Official Digital Download 24/96]
FLAC (tracks) 24-bit/96 kHz | Front Cover | Time - 49:48 minutes | 951 MB
Classical | Studio Master, Official Digital Download

Billboard chart-topping and Grammy winning Jeannette Sorrell, baroque orchestra Apollo's Fire, soprano Amanda Forsythe and the music of J S Bach create a divine musical partnership.

Heavenly Bach pairs two of the composer's most popular cantatas, interspersed with two sublime arias from the St. John Passion. In Jauchzet Gott in allen Landen! ( Shout to joy for God in every land!), Forsythe's dazzling virtuosity hits the high notes - she" sets arias on fire" according to BBC Music Magazine, whilst the secular 'Wedding Cantata' exudes a joyous and evocative marriage in springtime, for a result that is heavenly indeed.

Soprano Amanda Forsythe enjoys bringing virtuoso artistry to major stages on both sides of the Atlantic. Praised as "simply dazzling" (NEW YORK TIMES), she has appeared repeatedly at such venues as the Royal Opera House at Covent Garden and the Rossini Festival in Italy. She is a frequent soloist with the Boston Early Music Festival, with whom she can be heard on the GRAMMY winning recording of Charpentier's La descente d'Orphée aux enfers.

TRACKLIST

1. Amanda Forsythe - Jauchzet Gott in allen Landen!, BWV 51: I. Aria, Jauchzet Gott in allen Landen!
2. Amanda Forsythe - Jauchzet Gott in allen Landen!, BWV 51: II. Recitative, Wir beten zu dem Tempel an
3. Amanda Forsythe - Jauchzet Gott in allen Landen!, BWV 51: III. Aria, Höchster, mache deine Güte
4. Amanda Forsythe - Jauchzet Gott in allen Landen!, BWV 51: IV. Chorale, Sei Lob und Preis mit Ehren
5. Amanda Forsythe - Jauchzet Gott in allen Landen!, BWV 51: V. Aria, Alleluja!
6. Amanda Forsythe - Johannespassion, BWV 245, Pt. 2: XXI. Aria, Zerfliesse, mein Herze
7. Amanda Forsythe - Weichet nur, betrübte Schatten, BWV 202: I. Aria, Weichet nur, betrübte Schatten
8. Amanda Forsythe - Weichet nur, betrübte Schatten, BWV 202: II. Recitative, Die Welt wird wieder neu
9. Amanda Forsythe - Weichet nur, betrübte Schatten, BWV 202: III. Aria, Phoebus eilt mit schnellen Pferden
10. Amanda Forsythe - Weichet nur, betrübte Schatten, BWV 202: IV. Recitative, Drum sucht auch Amor sein Vergnügen
11. Amanda Forsythe - Weichet nur, betrübte Schatten, BWV 202: V. Aria, Wenn die Frühlingslüfte streichen
12. Amanda Forsythe - Weichet nur, betrübte Schatten, BWV 202: VI. Recitative, Und dieses ist das Glücke
13. Amanda Forsythe - Weichet nur, betrübte Schatten, BWV 202: VII. Aria, Sich üben im Lieben
14. Amanda Forsythe - Weichet nur, betrübte Schatten, BWV 202: VIII. Recitative, So sei das Band der keuschen Liebe
15. Amanda Forsythe - Weichet nur, betrübte Schatten, BWV 202: IX. Aria, Sehet in Zufriedenheit
16. Amanda Forsythe - Johannespassion, BWV 245, Pt. 1: IX. Aria, Ich folge dir gleichfalls

foobar2000 1.6.2 / Dynamic Range Meter 1.1.1
log date: 2022-11-18 17:54:35

––––––––––––––––––––––––––––––––––––––––
Analyzed: Amanda Forsythe / Heavenly Bach - Arias & Cantatas of J.S. Bach
––––––––––––––––––––––––––––––––––––––––

DR Peak RMS Duration Track
––––––––––––––––––––––––––––––––––––––––
DR13 -0.31 dB -16.57 dB 4:17 01-Jauchzet Gott in allen Landen!, BWV 51: I. Aria, Jauchzet Gott in allen Landen!
DR13 -0.31 dB -18.14 dB 2:20 02-Jauchzet Gott in allen Landen!, BWV 51: II. Recitative, Wir beten zu dem Tempel an
DR14 -0.31 dB -18.17 dB 4:58 03-Jauchzet Gott in allen Landen!, BWV 51: III. Aria, Höchster, mache deine Güte
DR13 -0.31 dB -17.79 dB 3:31 04-Jauchzet Gott in allen Landen!, BWV 51: IV. Chorale, Sei Lob und Preis mit Ehren
DR13 -0.31 dB -16.30 dB 2:07 05-Jauchzet Gott in allen Landen!, BWV 51: V. Aria, Alleluja!
DR14 -0.31 dB -20.77 dB 6:57 06-Johannespassion, BWV 245, Pt. 2: XXI. Aria, Zerfliesse, mein Herze
DR14 -0.73 dB -20.35 dB 6:40 07-Weichet nur, betrübte Schatten, BWV 202: I. Aria, Weichet nur, betrübte Schatten
DR13 -2.24 dB -22.49 dB 0:28 08-Weichet nur, betrübte Schatten, BWV 202: II. Recitative, Die Welt wird wieder neu
DR13 -2.12 dB -19.96 dB 3:14 09-Weichet nur, betrübte Schatten, BWV 202: III. Aria, Phoebus eilt mit schnellen Pferden
DR13 -0.78 dB -19.99 dB 0:43 10-Weichet nur, betrübte Schatten, BWV 202: IV. Recitative, Drum sucht auch Amor sein Vergnügen
DR15 -0.83 dB -21.39 dB 3:02 11-Weichet nur, betrübte Schatten, BWV 202: V. Aria, Wenn die Frühlingslüfte streichen
DR13 -0.76 dB -18.57 dB 0:45 12-Weichet nur, betrübte Schatten, BWV 202: VI. Recitative, Und dieses ist das Glücke
DR15 -0.64 dB -21.06 dB 4:18 13-Weichet nur, betrübte Schatten, BWV 202: VII. Aria, Sich üben im Lieben
DR13 -2.60 dB -19.55 dB 0:23 14-Weichet nur, betrübte Schatten, BWV 202: VIII. Recitative, So sei das Band der keuschen Liebe
DR14 -0.85 dB -19.81 dB 2:38 15-Weichet nur, betrübte Schatten, BWV 202: IX. Aria, Sehet in Zufriedenheit
DR15 -0.31 dB -18.88 dB 3:33 16-Johannespassion, BWV 245, Pt. 1: IX. Aria, Ich folge dir gleichfalls
––––––––––––––––––––––––––––––––––––––––

Number of tracks: 16
Official DR value: DR14

Samplerate: 96000 Hz
Channels: 2
Bits per sample: 24
Bitrate: 2512 kbps
Codec: FLAC
================================================================================



Thanks to the Original customer.