Tags
Language
Tags

Amanda Shires - For Christmas (2021) [Official Digital Download 24/96]

Posted By: pyatak
Amanda Shires - For Christmas (2021) [Official Digital Download 24/96]

Amanda Shires - For Christmas (2021) [Official Digital Download 24/96]
FLAC (tracks) 24-bit/96 kHz | Front Cover | Time - 38:42 minutes | 793 MB
X-Mas | Label: Silver Knife Records, Official Digital Download

Critically acclaimed, Grammy award-winning singer, songwriter and violinist Amanda Shires will be releasing a Christmas album in November 2021. Nine out of eleven tracks will be original songs. Amanda has released five solo studio albums, is a member of Jason Isbell and the 400 Unit and is a founding member of The Highwomen along with Brandi Carlile, Maren Morris and Natalie Hemby. Through the years, she has toured and recorded with notable artists including John Prine, Billy Joe Shaver, Todd Snider, Shovels and Rope, Gregg Allman, Justin Townes Earle and more, including her husband Jason Isbell.

TRACKLIST

01. Amanda Shires - Magic Ooooooh (feat. The McCrary Sisters)
02. Amanda Shires - A Real Tree This Year
03. Amanda Shires - Let's Get Away (feat. The McCrary Sisters)
04. Amanda Shires - Home to Me
05. Amanda Shires - Blame It on the Mistletoe
06. Amanda Shires - Slow Falling Snow
07. Amanda Shires - What Are You Doing New Year's Eve?
08. Amanda Shires - Silent Night
09. Amanda Shires - Gone for Christmas (feat. The McCrary Sisters)
10. Amanda Shires - Wish for You
11. Amanda Shires - Always Christmas Around Here (feat. Lawrence Rothman)

foobar2000 1.6.2 / Dynamic Range Meter 1.1.1
log date: 2021-11-13 09:58:39

––––––––––––––––––––––––––––––––––––––––
Analyzed: Amanda Shires / For Christmas
––––––––––––––––––––––––––––––––––––––––

DR Peak RMS Duration Track
––––––––––––––––––––––––––––––––––––––––
DR4 -1.10 dB -7.17 dB 4:13 01-Magic Ooooooh (feat. The McCrary Sisters)
DR4 -1.00 dB -7.40 dB 3:16 02-A Real Tree This Year
DR5 -1.00 dB -9.34 dB 3:21 03-Let's Get Away (feat. The McCrary Sisters)
DR4 -1.00 dB -7.42 dB 3:40 04-Home to Me
DR5 -1.00 dB -7.50 dB 3:18 05-Blame It on the Mistletoe
DR8 -1.10 dB -11.25 dB 3:39 06-Slow Falling Snow
DR6 -1.10 dB -8.67 dB 2:28 07-What Are You Doing New Year's Eve?
DR8 -1.00 dB -11.55 dB 4:13 08-Silent Night
DR4 -1.10 dB -6.20 dB 3:52 09-Gone for Christmas (feat. The McCrary Sisters)
DR4 -1.00 dB -6.73 dB 3:29 10-Wish for You
DR5 -1.00 dB -8.43 dB 3:13 11-Always Christmas Around Here (feat. Lawrence Rothman)
––––––––––––––––––––––––––––––––––––––––

Number of tracks: 11
Official DR value: DR5

Samplerate: 96000 Hz
Channels: 2
Bits per sample: 24
Bitrate: 2817 kbps
Codec: FLAC
================================================================================



Thanks to the Original customer.