Tags
Language
Tags

Anne-Marie - Therapy (2021) [Official Digital Download]

Posted By: pyatak
Anne-Marie - Therapy (2021) [Official Digital Download]

Anne-Marie - Therapy (2021) [Official Digital Download]
FLAC (tracks) 24-bit/44.1 kHz | Front Cover | Time - 33:48 minutes | 441 MB
Pop | Label: ‎ Atlantic, Official Digital Download

Anne-Marie’s second studio album, ‘Therapy’, is the official follow-up to her multi-platinum and four million-selling 2018 debut, ‘Speak Your Mind’ [the UK’s biggest-selling debut release of that year]. An artist whose everywoman candour and knock-you-down vocal range has reverberated across the globe, ‘Therapy’ is a collection of songs that embody Anne-Marie’s characterful artistry, self-effacing attitude and beautiful honesty; attributes that have not only catapulted Essex-born Anne-Marie to platinum status in the UK to the USA and everywhere in-between, but ones that have seen her reign supreme a fearless Gen Z role model.

With the full tracklisting yet to be announced, Mind Charity ambassador Anne-Marie is delighted to confirm that ‘Therapy’ will feature her already-released UK Top 3 and Gold-selling ‘Don’t Play’ with KSI and Digital Farm Animals; recent feel-good Nathan Dawe and MoStack collaboration ‘Way Too Long’; as well as Niall Horan collaboration, ‘Our Song’, which the pair wrote with Phil Plested and TMS (Lewis Capaldi), with the latter also on production.

An album of candour and vivacity in equal measure, Anne-Marie wrote ‘Therapy’ with Max Martin (Ariana Grande, Taylor Swift), Kamille (Little Mix, Headie One), MNEK, Raye, TMS, Blake Slatkin (The Kid Laroi, 24kGoldn), Ed Sheeran, Nathan Dawe and Plested (Lewis Capaldi) – production comes from Mojam (Aitch, Fredo), Fred Ball (Rihanna), TMS and Blake Slatkin.

TRACKLIST

1. Anne-Marie - x2
2. Anne-Marie - Don't Play
3. Anne-Marie - Kiss My (Uh Oh)
4. Anne-Marie - Who I Am
5. Anne-Marie - Our Song
6. Nathan Dawe - Way Too Long
7. Anne-Marie - Breathing
8. Rudimental - Unlovable (feat. Rudimental)
9. Anne-Marie - Beautiful
10. Anne-Marie - Tell Your Girlfriend
11. Anne-Marie - Better Not Together
12. Anne-Marie - Therapy

foobar2000 1.6.2 / Dynamic Range Meter 1.1.1
log date: 2021-07-22 13:18:05

––––––––––––––––––––––––––––––––––––––––
Analyzed: Anne-Marie / Therapy (1-10)
Nathan Dawe / Therapy (11)
Rudimental / Therapy (12)
––––––––––––––––––––––––––––––––––––––––

DR Peak RMS Duration Track
––––––––––––––––––––––––––––––––––––––––
DR6 -0.10 dB -8.95 dB 2:46 01-x2
DR6 -0.28 dB -8.38 dB 3:09 02-Don't Play
DR5 -0.11 dB -6.65 dB 2:57 03-Kiss My (Uh Oh)
DR5 -0.10 dB -6.87 dB 2:32 04-Who I Am
DR4 -0.11 dB -6.83 dB 2:44 05-Our Song
DR6 -0.11 dB -7.57 dB 3:24 07-Breathing
DR6 -0.10 dB -8.99 dB 3:15 09-Beautiful
DR5 -0.11 dB -7.22 dB 2:15 10-Tell Your Girlfriend
DR5 -0.09 dB -7.90 dB 3:09 11-Better Not Together
DR4 -0.10 dB -5.73 dB 2:46 12-Therapy
DR4 -0.26 dB -6.06 dB 2:30 06-Way Too Long
DR4 -0.09 dB -5.87 dB 2:23 08-Unlovable (feat. Rudimental)
––––––––––––––––––––––––––––––––––––––––

Number of tracks: 12
Official DR value: DR5

Samplerate: 44100 Hz
Channels: 2
Bits per sample: 24
Bitrate: 1675 kbps
Codec: FLAC
================================================================================



Thanks to the Original customer.